osu file format v14

[General]
AudioFilename: audio2.mp3
AudioLeadIn: 0
PreviewTime: 18958
Countdown: 0
SampleSet: Soft
StackLeniency: 0.7
Mode: 2
LetterboxInBreaks: 0
WidescreenStoryboard: 0

[Editor]
DistanceSpacing: 1.3
BeatDivisor: 4
GridSize: 4
TimelineZoom: 1

[Metadata]
Title:Seeing a Sixteen-Day-Old Moon
TitleUnicode:十六夜シーイング
Artist:R3 Music Box
ArtistUnicode:R3 Music Box
Creator:Shirokane Rinko
Version:Cup
Source:
Tags:Gumi Last note Moyashi Meriken Irojiro Teppei Sensei
BeatmapID:1807526
BeatmapSetID:864214

[Difficulty]
HPDrainRate:4
CircleSize:3
OverallDifficulty:5
ApproachRate:5
SliderMultiplier:1.6
SliderTickRate:1

[Events]
//Background and Video events
0,0,"bg.png",0,0
//Break Periods
//Storyboard Layer 0 (Background)
//Storyboard Layer 1 (Fail)
//Storyboard Layer 2 (Pass)
//Storyboard Layer 3 (Foreground)
//Storyboard Sound Samples

[TimingPoints]
45,652.173913043478,4,2,0,30,1,0
5262,-100,4,2,0,20,0,0
5914,-100,4,2,0,30,0,0
10479,-100,4,2,0,20,0,0
11131,-100,4,2,0,30,0,0
15697,-100,4,2,0,20,0,0
16349,-100,4,2,0,30,0,0
20914,-100,4,2,0,20,0,0
21566,-100,4,2,0,30,0,0
26131,-100,4,2,0,20,0,0
26294,-100,4,2,0,30,0,0
31349,-100,4,2,0,20,0,0
32001,-100,4,2,0,30,0,0
39175,705.882352941176,4,2,0,25,1,0
39175,-100,4,2,0,25,0,0
40645,705.882352941176,4,2,0,25,1,0
41057,705.882352941176,4,2,0,20,1,0
41459,705.882352941176,4,2,0,15,1,0
41932,705.882352941176,4,2,0,10,1,0

[Colours]
Combo1 : 128,128,128
Combo2 : 0,128,255

[HitObjects]
118,218,45,5,2,0:0:0:0:
284,215,697,1,2,0:0:0:0:
118,218,1349,1,0,0:0:0:0:
327,211,2001,2,0,L|408:212,2,80,0|0|2,0:0|0:0|0:0,0:0:0:0:
231,214,2979,6,0,P|180:159|247:112,1,160,2|0,0:0|0:0,0:0:0:0:
325,112,3958,1,0,0:0:0:0:
500,116,4610,1,0,0:0:0:0:
220,221,5262,5,4,0:0:0:0:
66,221,5914,1,2,0:0:0:0:
220,221,6566,1,0,0:0:0:0:
420,215,7218,6,0,L|503:216,2,80,2|2|0,0:0|0:0|0:0,0:0:0:0:
316,215,8197,2,0,P|271:179|326:111,1,160,2|0,0:0|0:0,0:0:0:0:
420,215,9175,1,0,0:0:0:0:
316,215,9501,1,0,0:0:0:0:
212,219,9827,1,0,0:0:0:0:
315,216,10153,1,0,0:0:0:0:
156,220,10479,5,0,0:0:0:0:
315,221,11131,1,0,0:0:0:0:
156,220,11784,1,0,0:0:0:0:
360,218,12436,6,0,L|451:217,2,80,2|0|0,0:0|0:0|0:0,0:0:0:0:
256,220,13414,2,0,P|211:285|273:351,1,160,2|2,0:0|0:0,0:0:0:0:
354,343,14392,1,2,0:0:0:0:
250,343,14718,5,0,0:0:0:0:
353,342,15044,1,0,0:0:0:0:
250,343,15371,1,0,0:0:0:0:
90,341,15697,5,0,0:0:0:0:
249,337,16349,1,0,0:0:0:0:
408,334,17001,1,0,0:0:0:0:
196,322,17653,6,0,L|106:322,2,80,2|0|2,0:0|0:0|0:0,0:0:0:0:
303,319,18631,2,0,P|348:259|286:213,1,160,2|2,0:0|0:0,0:0:0:0:
190,217,19610,1,0,0:0:0:0:
293,212,19936,1,0,0:0:0:0:
396,216,20262,1,0,0:0:0:0:
292,217,20588,1,0,0:0:0:0:
132,220,20914,5,0,0:0:0:0:
292,212,21566,1,0,0:0:0:0:
133,212,22218,1,2,0:0:0:0:
340,206,22871,6,0,L|434:206,1,80
270,202,23523,2,0,L|172:202,1,80,2|2,0:0|0:0,0:0:0:0:
110,168,24175,1,0,0:0:0:0:
213,169,24501,1,0,0:0:0:0:
316,169,24827,1,0,0:0:0:0:
419,170,25153,1,0,0:0:0:0:
316,169,25479,2,0,L|222:170,1,80
81,163,26131,6,0,P|142:105|219:90,1,160,4|2,0:0|0:0,0:0:0:0:
373,105,27436,1,0,0:0:0:0:
214,89,28088,1,2,0:0:0:0:
424,79,28740,6,0,L|508:79,1,80,0|2,0:0|0:0,0:0:0:0:
360,81,29392,1,0,0:0:0:0:
215,79,29718,2,0,L|145:79,2,40,0|0|2,0:0|0:0|0:0,0:0:0:0:
360,81,30697,1,0,0:0:0:0:
152,81,31349,5,0,0:0:0:0:
311,84,32001,1,0,0:0:0:0:
152,81,32653,2,0,L|65:81,2,80,2|2|2,0:0|0:0|0:0,0:0:0:0:
279,81,33631,1,0,0:0:0:0:
405,86,33958,6,0,L|407:183,1,80,0|2,0:0|0:0,0:0:0:0:
279,81,34610,2,0,L|182:81,2,80,2|2|0,0:0|0:0|0:0,0:0:0:0:
406,165,35588,1,2,0:0:0:0:
86,172,36240,1,0,0:0:0:0:
252,171,36566,6,0,P|291:240|217:296,1,160,2|2,0:0|0:0,0:0:0:0:
86,172,37544,1,0,0:0:0:0:
198,175,37871,1,0,0:0:0:0:
357,164,38523,1,0,0:0:0:0:
170,169,39175,6,0,L|86:169,2,80,2|0|0,0:0|0:0|0:0,0:0:0:0:
259,163,40233,1,0,0:0:0:0:
417,165,40645,1,0,0:0:0:0:
291,164,41057,1,0,0:0:0:0:
208,164,41459,1,0,0:0:0:0:
350,164,41932,1,0,0:0:0:0:
