osu file format v14

[General]
AudioFilename: audio.mp3
AudioLeadIn: 0
PreviewTime: 1265
Countdown: 1
SampleSet: Soft
StackLeniency: 0.7
Mode: 0
LetterboxInBreaks: 0
WidescreenStoryboard: 1

[Editor]
Bookmarks: 36712
DistanceSpacing: 2
BeatDivisor: 3
GridSize: 32
TimelineZoom: 1

[Metadata]
Title:Sail
TitleUnicode:Sail
Artist:R3 Music Box
ArtistUnicode:R3 Music Box
Creator:TheDustOfTimes
Version:Hard
Source:
Tags:AWOLNATION cover instrumental
BeatmapID:2098078
BeatmapSetID:1002363

[Difficulty]
HPDrainRate:5
CircleSize:5.5
OverallDifficulty:8
ApproachRate:7
SliderMultiplier:1
SliderTickRate:1

[Events]
//Background and Video events
0,0,"sail.jpg",0,0
//Break Periods
//Storyboard Layer 0 (Background)
//Storyboard Layer 1 (Fail)
//Storyboard Layer 2 (Pass)
//Storyboard Layer 3 (Foreground)
//Storyboard Sound Samples

[TimingPoints]
51,560.747663551402,4,2,0,60,1,0
34817,612.244897959184,4,2,0,55,1,0
35429,631.578947368421,4,2,0,55,1,0
36060,652.173913043478,4,2,0,50,1,0
36712,-100,4,2,0,40,0,0

[Colours]
Combo1 : 30,0,117
Combo2 : 16,66,239
Combo3 : 40,148,255
Combo4 : 173,173,173

[HitObjects]
415,155,51,6,0,P|368:212|321:207,1,100,2|0,3:2|0:0,0:0:0:0:
240,141,1172,1,0,3:0:0:0:
113,162,1733,1,0,0:0:0:0:
131,201,1920,1,0,0:0:0:0:
168,219,2107,1,0,0:0:0:0:
205,237,2293,5,0,3:0:0:0:
229,271,2480,1,0,0:0:0:0:
234,312,2667,1,0,0:0:0:0:
217,350,2854,1,0,0:0:0:0:
272,153,3415,1,0,3:0:0:0:
130,286,3976,1,0,0:0:0:0:
191,129,4350,1,0,0:0:0:0:
223,332,4536,6,0,P|247:371|320:374,1,100,2|0,3:2|0:0,0:0:0:0:
415,320,5658,1,0,3:0:0:0:
359,205,6219,5,0,0:0:0:0:
349,162,6406,1,0,0:0:0:0:
340,120,6593,1,0,0:0:0:0:
377,136,6779,5,0,3:0:0:0:
368,94,6966,1,0,0:0:0:0:
359,51,7153,1,0,0:0:0:0:
347,10,7340,1,0,0:0:0:0:
300,192,7901,1,0,3:0:0:0:
449,106,8462,1,0,0:0:0:0:
222,147,8836,1,0,0:0:0:0:
366,49,9022,6,0,P|331:27|257:30,1,100,2|0,3:2|0:0,0:0:0:0:
145,61,10144,1,0,3:0:0:0:
257,119,10705,1,0,0:0:0:0:
216,132,10892,1,0,0:0:0:0:
175,146,11079,1,0,0:0:0:0:
162,185,11265,5,0,3:0:0:0:
203,197,11452,1,0,0:0:0:0:
244,204,11639,1,0,0:0:0:0:
285,215,11826,1,0,0:0:0:0:
82,150,12387,1,0,3:0:0:0:
287,146,12948,1,0,0:0:0:0:
132,235,13322,1,0,0:0:0:0:
148,50,13508,6,0,L|130:158,1,100,2|0,3:2|0:0,0:0:0:0:
125,258,14630,1,0,3:0:0:0:
33,316,15191,1,0,0:0:0:0:
71,337,15378,1,0,0:0:0:0:
112,337,15565,1,0,0:0:0:0:
150,317,15751,5,0,3:0:0:0:
189,299,15938,1,0,0:0:0:0:
229,296,16125,1,0,0:0:0:0:
265,319,16312,1,0,0:0:0:0:
378,373,16873,1,0,3:0:0:0:
450,269,17434,1,0,0:0:0:0:
467,228,17621,1,0,0:0:0:0:
454,186,17808,1,0,0:0:0:0:
418,163,17994,6,0,P|379:167|359:101,1,100,2|0,3:2|0:0,0:0:0:0:
440,79,19116,1,0,3:0:0:0:
303,200,19677,1,0,0:0:0:0:
300,241,19864,1,0,0:0:0:0:
312,281,20051,1,0,0:0:0:0:
344,307,20237,5,0,3:0:0:0:
372,276,20424,1,0,0:0:0:0:
370,233,20611,1,0,0:0:0:0:
349,197,20798,1,0,0:0:0:0:
198,215,21359,1,0,3:0:0:0:
305,115,21920,1,0,0:0:0:0:
153,175,22293,1,0,0:0:0:0:
129,0,22480,6,0,P|59:21|29:66,1,100,2|0,3:2|0:0,0:0:0:0:
1,159,23602,1,0,3:0:0:0:
94,230,24163,5,0,0:0:0:0:
105,271,24350,1,0,0:0:0:0:
93,311,24536,1,0,0:0:0:0:
65,341,24723,5,0,3:0:0:0:
99,365,24910,1,0,0:0:0:0:
141,360,25097,1,0,0:0:0:0:
174,336,25284,1,0,0:0:0:0:
196,209,25845,1,0,3:0:0:0:
222,372,26406,1,0,0:0:0:0:
265,185,26779,1,0,0:0:0:0:
358,340,26966,6,0,L|482:366,1,100,2|0,3:2|0:0,0:0:0:0:
511,244,28088,1,0,3:0:0:0:
393,198,28649,1,0,0:0:0:0:
422,168,28835,1,0,0:0:0:0:
450,136,29022,1,0,0:0:0:0:
480,104,29209,5,0,3:0:0:0:
448,75,29395,1,0,0:0:0:0:
417,46,29582,1,0,0:0:0:0:
385,17,29769,1,0,0:0:0:0:
385,110,30331,1,0,3:0:0:0:
510,176,30892,1,0,0:0:0:0:
274,200,31265,1,0,0:0:0:0:
258,1,31452,6,0,P|294:46|299:105,1,100,2|0,3:2|0:0,0:0:0:0:
194,88,32574,1,0,3:0:0:0:
112,61,33135,5,0,0:0:0:0:
102,101,33322,1,0,0:0:0:0:
111,142,33508,1,0,0:0:0:0:
137,175,33695,5,0,3:0:0:0:
178,182,33882,1,0,0:0:0:0:
219,171,34069,1,0,0:0:0:0:
251,145,34256,1,0,0:0:0:0:
316,60,34817,1,0,3:0:0:0:
419,84,35429,1,0,0:0:0:0:
445,125,35639,1,0,0:0:0:0:
439,173,35850,1,0,0:0:0:0:
404,205,36060,5,2,3:2:0:0:
269,178,36712,1,2,0:3:0:0:
