osu file format v14

[General]
AudioFilename: audio.mp3
AudioLeadIn: 0
PreviewTime: 14464
Countdown: 0
SampleSet: Soft
StackLeniency: 0.7
Mode: 0
LetterboxInBreaks: 0
WidescreenStoryboard: 0

[Editor]
DistanceSpacing: 1.2
BeatDivisor: 4
GridSize: 4
TimelineZoom: 1.7

[Metadata]
Title:Road of Resistance
TitleUnicode:Road of Resistance
Artist:R3 Music Box
ArtistUnicode:R3 Music Box
Creator:Asaiga
Version:Easy
Source:
Tags:Namki BABYMETAL instrument
BeatmapID:1189929
BeatmapSetID:562458

[Difficulty]
HPDrainRate:2.4
CircleSize:3.2
OverallDifficulty:2.1
ApproachRate:3.3
SliderMultiplier:0.8
SliderTickRate:1

[Events]
//Background and Video events
0,0,"bg2.jpg",0,0
//Break Periods
//Storyboard Layer 0 (Background)
//Storyboard Layer 1 (Fail)
//Storyboard Layer 2 (Pass)
//Storyboard Layer 3 (Foreground)
//Storyboard Sound Samples

[TimingPoints]
1288.53247023786,405.405405405405,4,2,1,30,1,0
2910,-100,4,2,2,30,0,0
4531,-100,4,2,1,30,0,0
6153,-100,4,2,2,30,0,0
7775,-100,4,2,1,30,0,0
10207,-100,4,2,2,30,0,0
11018,-100,4,2,1,30,0,0
15680,-100,4,2,2,30,0,0
16288,-100,4,2,1,30,0,0
19937,-100,4,2,2,30,0,0
20747,-100,4,2,1,30,0,0
21964,-100,4,2,2,30,0,0
22775,-100,4,2,1,30,0,0
25207,-100,4,2,2,30,0,0
26829,-100,4,2,2,30,0,0
27234,-100,4,2,1,30,0,0
28856,-100,4,2,2,30,0,0
30477,-100,4,2,1,30,0,0
32099,-100,4,2,2,30,0,0
33720,-100,4,2,1,30,0,0
36153,-100,4,2,2,30,0,0
36964,-100,4,2,1,30,0,0
41626,-100,4,2,2,30,0,0
42234,-100,4,2,1,30,0,0
45883,-100,4,2,2,30,0,0
46693,-100,4,2,1,30,0,0
47910,-100,4,2,2,30,0,0
48720,-100,4,2,1,30,0,0
49937,428.571428571429,4,2,1,25,1,0
50794,461.538461538462,4,2,1,20,1,0
51255,500,4,2,1,20,1,0
51755,-100,4,2,1,5,0,0

[Colours]
Combo1 : 247,235,153
Combo2 : 141,241,219
Combo3 : 252,171,183

[HitObjects]
95,279,1288,6,0,B|147:239|203:303|259:255,1,160,2|0,0:0|0:0,0:0:0:0:
304,184,2504,1,0,0:0:0:0:
295,87,2910,2,0,P|373:115|401:188,1,160,2|0,0:0|0:0,0:0:0:0:
367,275,4126,1,0,0:0:0:0:
271,303,4531,6,0,B|209:290|243:199|178:180,1,160,2|0,0:0|0:0,0:0:0:0:
87,165,5747,1,0,0:0:0:0:
8,107,6153,2,0,P|77:68|154:95,1,160,2|0,0:0|0:0,0:0:0:0:
182,182,7369,1,0,0:0:0:0:
134,265,7775,6,0,B|52:264|52:264|12:284,2,120,2|2|2,0:0|0:0|0:0,0:0:0:0:
217,312,9396,1,2,0:0:0:0:
344,168,10207,2,0,P|300:160|262:174,1,80,2|2,0:0|0:0,0:0:0:0:
179,209,11018,6,0,B|184:124|184:124|168:80,2,120,2|2|2,0:0|0:0|0:0,0:0:0:0:
236,286,12639,2,0,P|280:288|316:270,1,80,2|0,0:0|0:0,0:0:0:0:
360,190,13450,2,0,P|398:166|442:161,1,80,2|0,0:0|0:0,0:0:0:0:
429,257,14261,5,0,0:0:0:0:
236,286,15072,2,0,P|187:252|114:257,2,120,2|2|2,0:0|0:0|0:0,0:0:0:0:
302,217,16693,2,0,L|277:124,1,80,2|2,0:0|0:0,0:0:0:0:
322,52,17504,6,0,P|394:3|463:22,1,160,2|0,0:0|0:0,0:0:0:0:
405,100,18720,1,2,0:0:0:0:
485,152,19126,1,2,0:0:0:0:
354,293,19937,6,0,L|266:276,1,80,2|2,0:0|0:0,0:0:0:0:
238,189,20747,2,0,P|294:128|375:135,1,160,2|0,0:0|0:0,0:0:0:0:
456,170,21964,2,0,P|470:207|468:246,1,80,2|0,0:0|0:0,0:0:0:0:
383,292,22775,2,0,L|379:384,2,80,2|2|2,0:0|0:0|0:0,0:0:0:0:
332,210,23991,5,2,0:0:0:0:
44,209,25207,1,2,0:0:0:0:
91,125,25612,2,0,L|75:24,2,80
176,171,26829,1,2,0:0:0:0:
164,268,27234,6,0,B|224:256|224:256|256:232|256:232|324:220,1,160,2|0,0:0|0:0,0:0:0:0:
404,256,28450,1,0,0:0:0:0:
344,332,28856,2,0,L|188:364,1,160,2|0,0:0|0:0,0:0:0:0:
96,336,30072,1,0,0:0:0:0:
164,268,30477,6,0,B|176:208|176:208|167:170|167:170|181:108,1,160,2|0,0:0|0:0,0:0:0:0:
256,52,31693,1,0,0:0:0:0:
288,144,32099,2,0,L|256:300,1,160,2|0,0:0|0:0,0:0:0:0:
164,328,33315,1,0,0:0:0:0:
100,260,33720,6,0,B|24:230|24:230|-17:230,2,120,2|2|2,0:0|0:0|0:0,0:0:0:0:
180,208,35342,1,2,0:0:0:0:
324,336,36153,2,0,P|360:320|412:324,1,80,2|2,0:0|0:0,0:0:0:0:
464,248,36964,6,0,B|482:170|482:170|513:128,2,120,2|2|2,0:0|0:0|0:0,0:0:0:0:
388,192,38585,2,0,P|349:170|308:171,1,80,2|0,0:0|0:0,0:0:0:0:
229,213,39396,2,0,P|195:226|135:216,1,80,2|0,0:0|0:0,0:0:0:0:
180,131,40207,5,0,0:0:0:0:
346,34,41018,2,0,P|402:52|466:18,2,120,2|2|2,0:0|0:0|0:0,0:0:0:0:
281,105,42639,2,0,L|298:197,1,80,2|2,0:0|0:0,0:0:0:0:
237,260,43450,6,0,P|160:285|88:243,1,160,2|0,0:0|0:0,0:0:0:0:
170,188,44666,1,2,0:0:0:0:
122,104,45072,1,2,0:0:0:0:
295,183,45883,6,0,L|377:179,1,80,2|2,0:0|0:0,0:0:0:0:
434,254,46693,2,0,P|471:174|439:107,1,160,2|0,0:0|0:0,0:0:0:0:
363,61,47910,2,0,P|319:70|271:57,1,80,2|0,0:0|0:0,0:0:0:0:
200,106,48720,2,0,P|158:96|114:110,2,80,2|2|2,0:0|0:0|0:0,0:0:0:0:
160,186,49937,5,2,0:0:0:0:
277,319,50794,6,0,L|357:319,1,80
256,192,51755,12,0,53755,0:0:0:0:
