osu file format v14

[General]
AudioFilename: audio.mp3
AudioLeadIn: 0
PreviewTime: 14464
Countdown: 0
SampleSet: Soft
StackLeniency: 0.7
Mode: 0
LetterboxInBreaks: 0
WidescreenStoryboard: 0

[Editor]
DistanceSpacing: 1.4
BeatDivisor: 4
GridSize: 16
TimelineZoom: 1.7

[Metadata]
Title:Road of Resistance
TitleUnicode:Road of Resistance
Artist:R3 Music Box
ArtistUnicode:R3 Music Box
Creator:Asaiga
Version:Devotion
Source:
Tags:Namki BABYMETAL instrument
BeatmapID:1189150
BeatmapSetID:562458

[Difficulty]
HPDrainRate:5.2
CircleSize:3.8
OverallDifficulty:6.5
ApproachRate:7.5
SliderMultiplier:1.3
SliderTickRate:1

[Events]
//Background and Video events
0,0,"bg2.jpg",0,0
//Break Periods
//Storyboard Layer 0 (Background)
//Storyboard Layer 1 (Fail)
//Storyboard Layer 2 (Pass)
//Storyboard Layer 3 (Foreground)
//Storyboard Sound Samples

[TimingPoints]
1288.53247023786,405.405405405405,4,2,1,30,1,0
1896,-100,4,2,0,30,0,0
2099,-100,4,2,1,30,0,0
3518,-100,4,2,0,30,0,0
3720,-100,4,2,1,30,0,0
5139,-100,4,2,0,30,0,0
5342,-100,4,2,1,30,0,0
6761,-100,4,2,0,30,0,0
6964,-100,4,2,1,30,0,0
8788,-100,4,2,1,5,0,0
8991,-100,4,2,1,30,0,0
9193,-100,4,2,1,5,0,0
9396,-100,4,2,1,30,0,0
10207,-100,4,2,0,30,0,0
11018,-100,4,2,1,30,0,0
12031,-100,4,2,1,5,0,0
12234,-100,4,2,1,30,0,0
12437,-100,4,2,1,5,0,0
12639,-83.3333333333333,4,2,1,30,0,0
13349,-100,4,2,1,5,0,0
13450,-125,4,2,1,30,0,0
14666,-100,4,2,1,30,0,0
15477,-100,4,2,2,30,0,0
16288,-100,4,2,1,30,0,0
16491,-100,4,2,1,5,0,0
16693,-90.9090909090909,4,2,1,30,0,0
16896,-100,4,2,1,5,0,0
17099,-100,4,2,1,30,0,0
19937,-100,4,2,0,30,0,0
20747,-100,4,2,1,30,0,0
21964,-100,4,2,2,30,0,0
22775,-100,4,2,1,30,0,0
22977,-100,4,2,1,5,0,0
23180,-100,4,2,1,30,0,0
23383,-100,4,2,1,5,0,0
23585,-100,4,2,1,30,0,0
25207,-100,4,2,2,30,0,0
27234,-100,4,2,1,30,0,0
27842,-100,4,2,0,30,0,0
28045,-100,4,2,1,30,0,0
29464,-100,4,2,0,30,0,0
29666,-100,4,2,1,30,0,0
31085,-100,4,2,0,30,0,0
31288,-100,4,2,1,30,0,0
32707,-100,4,2,0,30,0,0
32910,-100,4,2,1,30,0,0
34734,-100,4,2,1,5,0,0
34937,-100,4,2,1,30,0,0
35139,-100,4,2,1,5,0,0
35342,-100,4,2,1,30,0,0
36153,-100,4,2,0,30,0,0
36964,-100,4,2,1,30,0,0
37977,-100,4,2,1,5,0,0
38180,-100,4,2,1,30,0,0
38383,-100,4,2,1,5,0,0
38585,-83.3333333333333,4,2,1,30,0,0
39295,-83.3333333333333,4,2,1,5,0,0
39396,-125,4,2,1,30,0,0
41018,-100,4,2,1,30,0,0
41423,-100,4,2,2,30,0,0
42234,-90.9090909090909,4,2,1,30,0,0
42437,-90.9090909090909,4,2,1,5,0,0
42639,-83.3333333333333,4,2,1,30,0,0
42842,-90.9090909090909,4,2,1,5,0,0
43045,-100,4,2,1,30,0,0
45883,-100,4,2,0,30,0,0
46693,-100,4,2,1,30,0,0
47910,-100,4,2,2,30,0,0
48720,-125,4,2,1,30,0,0
49937,428.571428571429,4,2,1,25,1,0
50365,-125,4,2,2,30,0,0
50794,461.538461538462,4,2,1,30,1,0
51255,500,4,2,1,20,1,0
51755,-100,4,2,1,5,0,0

[Colours]
Combo1 : 247,235,153
Combo2 : 141,241,219
Combo3 : 252,171,183

[HitObjects]
162,217,72,6,0,L|292:222,2,130
353,290,1289,6,0,P|382:234|368:171,1,130,2|0,0:0|0:0,0:0:0:0:
292,222,1896,1,2,0:0:0:0:
250,140,2099,1,0,0:0:0:0:
427,99,2504,1,2,0:0:0:0:
292,222,2910,5,2,0:0:0:0:
253,44,3315,1,0,0:0:0:0:
328,95,3518,1,2,0:0:0:0:
250,140,3720,1,0,0:0:0:0:
420,204,4126,1,2,0:0:0:0:
267,302,4531,6,0,P|224:258|144:264,1,130,2|0,0:0|0:0,0:0:0:0:
90,317,5139,1,2,0:0:0:0:
11,270,5342,1,0,0:0:0:0:
144,144,5747,1,2,0:0:0:0:
90,317,6153,5,2,0:0:0:0:
234,125,6558,1,0,0:0:0:0:
144,144,6761,1,2,0:0:0:0:
63,100,6964,1,0,0:0:0:0:
156,265,7369,1,2,0:0:0:0:
156,265,7775,6,0,L|312:261,1,130,2|0,0:0|0:0,0:0:0:0:
409,211,8383,2,0,B|373:202|348:203|348:203|317:185|317:185|273:180,1,130,2|0,0:0|0:0,0:0:0:0:
156,265,8991,2,0,B|158:255|159:229|159:229|170:202,1,65,2|0,0:0|0:0,0:0:0:0:
199,91,9396,6,0,P|255:123|284:181,1,130,2|0,0:0|0:0,0:0:0:0:
261,336,10207,1,2,0:0:0:0:
409,278,10612,1,2,0:0:0:0:
284,181,11018,6,0,L|136:159,1,130,2|0,0:0|0:0,0:0:0:0:
67,98,11626,2,0,B|43:138|91:178|67:226,1,130,2|0,0:0|0:0,0:0:0:0:
8,302,12234,2,0,B|40:298|40:298|81:310,1,65,2|0,0:0|0:0,0:0:0:0:
190,346,12639,6,0,P|260:258|150:271,1,272.999991668701,2|0,0:0|0:0,0:0:0:0:
72,308,13450,6,0,P|85:216|152:281,1,208,2|0,0:0|0:0,0:0:0:0:
153,259,14666,1,0,0:0:0:0:
320,153,15072,5,2,0:0:0:0:
337,319,15477,1,2,0:0:0:0:
255,250,15680,2,0,L|170:242,1,65,2|0,0:0|0:0,0:0:0:0:
320,153,16288,6,0,L|384:158,1,65,2|0,0:0|0:0,0:0:0:0:
250,94,16693,6,0,L|154:86,1,71.5000021820069,2|0,0:0|0:0,0:0:0:0:
315,36,17099,5,2,0:0:0:0:
187,164,17504,6,0,B|45:151,2,130,2|0|0,0:0|0:0|0:0,0:0:0:0:
246,299,18720,1,2,0:0:0:0:
93,358,19126,6,0,P|40:327|41:253,1,130,2|0,0:0|0:0,0:0:0:0:
187,164,19937,1,2,0:0:0:0:
49,65,20342,1,2,0:0:0:0:
271,172,20747,6,0,L|246:303,2,130,2|0|0,0:0|0:0|0:0,0:0:0:0:
271,172,21964,1,2,0:0:0:0:
153,193,22166,2,0,L|86:176,1,65,2|0,0:0|0:0,0:0:0:0:
107,356,22775,6,0,P|139:363|178:355,1,65,2|0,0:0|0:0,0:0:0:0:
248,300,23180,2,0,P|280:293|319:301,1,65,2|0,0:0|0:0,0:0:0:0:
391,354,23585,1,2,0:0:0:0:
300,169,23991,6,0,L|434:158,2,130,2|0|0,0:0|0:0|0:0,0:0:0:0:
152,59,25207,1,2,0:0:0:0:
96,131,25410,2,0,L|105:215,1,65,2|0,0:0|0:0,0:0:0:0:
221,243,26018,5,0,0:0:0:0:
152,59,26423,1,0,0:0:0:0:
355,91,26829,1,2,0:0:0:0:
355,91,27234,6,0,P|394:154|381:216,1,130,2|0,0:0|0:0,0:0:0:0:
300,169,27842,1,2,0:0:0:0:
233,229,28045,1,0,0:0:0:0:
410,303,28450,1,2,0:0:0:0:
229,352,28856,5,2,0:0:0:0:
300,169,29261,1,0,0:0:0:0:
308,268,29464,1,2,0:0:0:0:
386,206,29666,1,0,0:0:0:0:
209,141,30072,1,2,0:0:0:0:
257,331,30477,6,0,P|318:347|377:307,1,130,2|0,0:0|0:0,0:0:0:0:
386,206,31085,1,2,0:0:0:0:
308,268,31288,1,0,0:0:0:0:
278,88,31693,1,2,0:0:0:0:
162,237,32099,5,2,0:0:0:0:
322,164,32504,1,0,0:0:0:0:
229,165,32707,1,2,0:0:0:0:
278,88,32910,1,0,0:0:0:0:
445,257,33315,1,2,0:0:0:0:
445,257,33720,6,0,L|299:246,1,130,2|0,0:0|0:0,0:0:0:0:
174,189,34329,2,0,B|210:182|235:185|235:185|267:169|267:169|311:167,1,130,2|0,0:0|0:0,0:0:0:0:
445,257,34937,2,0,B|450:232|450:232|461:214|460:191,1,65,2|0,0:0|0:0,0:0:0:0:
348,67,35342,6,0,P|298:105|305:176,1,130,2|0,0:0|0:0,0:0:0:0:
445,257,36153,1,2,0:0:0:0:
233,269,36558,1,2,0:0:0:0:
348,67,36964,6,0,L|219:83,1,130,2|0,0:0|0:0,0:0:0:0:
118,50,37572,2,0,B|107:91|156:132|141:176,1,130,2|0,0:0|0:0,0:0:0:0:
55,234,38180,2,0,B|81:250|81:250|102:279,1,65,2|0,0:0|0:0,0:0:0:0:
172,353,38585,6,0,L|445:313,1,272.999991668701,2|0,0:0|0:0,0:0:0:0:
490,252,39396,6,0,P|438:169|343:193,1,208,2|0,0:0|0:0,0:0:0:0:
343,191,40612,1,0,0:0:0:0:
152,208,41018,5,2,0:0:0:0:
296,335,41423,1,2,0:0:0:0:
351,260,41626,2,0,L|347:195,1,65,2|0,0:0|0:0,0:0:0:0:
152,208,42234,6,0,L|156:285,1,71.5000021820069,2|0,0:0|0:0,0:0:0:0:
244,177,42639,6,0,L|241:100,1,77.999997619629,2|0,0:0|0:0,0:0:0:0:
144,32,43045,5,2,0:0:0:0:
325,136,43450,6,0,L|476:121,2,130,2|0|0,0:0|0:0|0:0,0:0:0:0:
152,208,44666,1,2,0:0:0:0:
284,346,45072,6,0,P|351:331|388:278,1,130,2|0,0:0|0:0,0:0:0:0:
454,123,45883,1,2,0:0:0:0:
298,253,46288,1,2,0:0:0:0:
227,82,46693,6,0,L|365:85,2,130,2|0|0,0:0|0:0|0:0,0:0:0:0:
71,131,47910,1,2,0:0:0:0:
149,106,48112,2,0,L|145:183,1,65,2|0,0:0|0:0,0:0:0:0:
227,82,48720,6,0,L|221:200,2,104,2|2|2,0:0|0:0|0:0,0:0:0:0:
298,172,49937,5,2,0:0:0:0:
373,153,50365,2,0,L|375:101,2,52,0|2|0,0:0|0:0|0:0,0:0:0:0:
451,139,51255,5,0,0:0:0:0:
256,192,51755,12,0,53755,0:0:0:0:
