osu file format v14

[General]
AudioFilename: audio.mp3
AudioLeadIn: 0
PreviewTime: -1
Countdown: 0
SampleSet: Normal
StackLeniency: 0.7
Mode: 3
LetterboxInBreaks: 0
SpecialStyle: 0
WidescreenStoryboard: 0

[Editor]
DistanceSpacing: 1.2
BeatDivisor: 4
GridSize: 16
TimelineZoom: 1

[Metadata]
Title:Road of Resistance
TitleUnicode:Road of Resistance
Artist:R3 Music Box
ArtistUnicode:R3 Music Box
Creator:- Onigawara -
Version:Easy
Source:
Tags:R3 Music Box Road of Resistance
BeatmapID:1278398
BeatmapSetID:605073

[Difficulty]
HPDrainRate:7
CircleSize:4
OverallDifficulty:7
ApproachRate:5
SliderMultiplier:1.2
SliderTickRate:1

[Events]
//Background and Video events
0,0,"bg2.jpg",0,0
//Break Periods
//Storyboard Layer 0 (Background)
//Storyboard Layer 1 (Fail)
//Storyboard Layer 2 (Pass)
//Storyboard Layer 3 (Foreground)
//Storyboard Sound Samples

[TimingPoints]
1289,405.405405405405,4,1,0,5,1,0

[HitObjects]
64,192,72,5,0,0:0:0:0:
448,192,72,128,0,1289:0:0:0:0:
64,192,478,1,0,0:0:0:0:
64,192,883,1,0,0:0:0:0:
64,192,1289,1,0,0:0:0:0:
192,192,1897,1,0,0:0:0:0:
64,192,2505,1,0,0:0:0:0:
192,192,2910,1,0,0:0:0:0:
320,192,3518,1,0,0:0:0:0:
64,192,4126,1,0,0:0:0:0:
192,192,4532,1,0,0:0:0:0:
320,192,5140,1,0,0:0:0:0:
64,192,5748,1,0,0:0:0:0:
192,192,6153,1,0,0:0:0:0:
64,192,6761,1,0,0:0:0:0:
192,192,7370,1,0,0:0:0:0:
448,192,7775,1,0,0:0:0:0:
64,192,8383,1,0,0:0:0:0:
320,192,8991,1,0,0:0:0:0:
64,192,9397,128,0,10207:0:0:0:0:
448,192,10207,1,0,0:0:0:0:
192,192,10613,1,0,0:0:0:0:
320,192,11018,1,0,0:0:0:0:
448,192,11018,128,0,12640:0:0:0:0:
192,192,11626,1,0,0:0:0:0:
64,192,12234,1,0,0:0:0:0:
192,192,12640,1,0,0:0:0:0:
192,192,13451,1,0,0:0:0:0:
64,192,14261,1,0,0:0:0:0:
192,192,15072,1,0,0:0:0:0:
64,192,15478,1,0,0:0:0:0:
320,192,15680,1,0,0:0:0:0:
64,192,16288,1,0,0:0:0:0:
192,192,16694,1,0,0:0:0:0:
320,192,17099,1,0,0:0:0:0:
448,192,17505,1,0,0:0:0:0:
320,192,17505,128,0,18316:0:0:0:0:
64,192,18721,1,0,0:0:0:0:
192,192,19126,1,0,0:0:0:0:
320,192,19937,1,0,0:0:0:0:
192,192,20343,1,0,0:0:0:0:
448,192,20748,128,0,21559:0:0:0:0:
64,192,21964,1,0,0:0:0:0:
320,192,22167,1,0,0:0:0:0:
64,192,22775,1,0,0:0:0:0:
192,192,23180,1,0,0:0:0:0:
192,192,23586,1,0,0:0:0:0:
320,192,23991,1,0,0:0:0:0:
448,192,23991,128,0,24599:0:0:0:0:
64,192,25207,1,0,0:0:0:0:
320,192,25410,1,0,0:0:0:0:
64,192,26829,1,0,0:0:0:0:
320,192,27234,1,0,0:0:0:0:
192,192,27843,1,0,0:0:0:0:
448,192,28451,1,0,0:0:0:0:
192,192,28856,1,0,0:0:0:0:
320,192,29464,1,0,0:0:0:0:
64,192,30072,1,0,0:0:0:0:
192,192,30478,1,0,0:0:0:0:
320,192,31086,1,0,0:0:0:0:
448,192,31694,1,0,0:0:0:0:
64,192,32099,1,0,0:0:0:0:
320,192,32707,1,0,0:0:0:0:
64,192,33316,1,0,0:0:0:0:
448,192,33721,1,0,0:0:0:0:
192,192,34329,1,0,0:0:0:0:
448,192,34937,1,0,0:0:0:0:
192,192,35343,1,0,0:0:0:0:
448,192,36153,1,0,0:0:0:0:
64,192,36559,1,0,0:0:0:0:
320,192,36964,1,0,0:0:0:0:
192,192,37572,1,0,0:0:0:0:
448,192,38180,1,0,0:0:0:0:
64,192,38586,1,0,0:0:0:0:
320,192,39397,1,0,0:0:0:0:
64,192,41018,1,0,0:0:0:0:
192,192,41424,1,0,0:0:0:0:
320,192,41626,1,0,0:0:0:0:
320,192,42234,1,0,0:0:0:0:
64,192,42640,1,0,0:0:0:0:
320,192,43045,1,0,0:0:0:0:
192,192,43451,1,0,0:0:0:0:
448,192,44667,1,0,0:0:0:0:
320,192,45072,1,0,0:0:0:0:
192,192,45883,1,0,0:0:0:0:
320,192,46288,1,0,0:0:0:0:
192,192,46694,1,0,0:0:0:0:
448,192,47910,1,0,0:0:0:0:
192,192,48113,1,0,0:0:0:0:
192,192,48721,1,0,0:0:0:0:
448,192,49126,1,0,0:0:0:0:
192,192,49532,1,0,0:0:0:0:
448,192,49937,1,0,0:0:0:0:
64,192,50444,128,0,50647:0:0:0:0:
192,192,50849,128,0,51052:0:0:0:0:
448,192,51356,128,0,51559:0:0:0:0:
320,192,51761,128,0,51964:0:0:0:0:
192,192,51863,128,0,52066:0:0:0:0:
64,192,51964,128,0,52167:0:0:0:0:
