osu file format v14

[General]
AudioFilename: audio.mp3
AudioLeadIn: 0
PreviewTime: 96
Countdown: 0
SampleSet: Normal
StackLeniency: 0.7
Mode: 1
LetterboxInBreaks: 0
WidescreenStoryboard: 0

[Editor]
DistanceSpacing: 1.6
BeatDivisor: 4
GridSize: 32
TimelineZoom: 1

[Metadata]
Title:Reimei
TitleUnicode:レイメイ
Artist:R3 Music Box
ArtistUnicode:R3 Music Box
Creator:ChuuritsuTv
Version:Muzukashii
Source:ゴールデンカムイ 第二期
Tags:golden kamuy kamui dainiki 2nd season 杉元 佐一 sugimoto saichi the immortal 不死身 fujimi orugōru orugouru orugouru orugoru bgm midi cover カバー arrangement アレンジ 癒し カバー アレンジ クラシック音楽 kurashikku さユり×MY FIRST STORY sayuri x paradogi realy0_
BeatmapID:1860158
BeatmapSetID:889850

[Difficulty]
HPDrainRate:5
CircleSize:2
OverallDifficulty:5
ApproachRate:5
SliderMultiplier:1.4
SliderTickRate:1

[Events]
//Background and Video events
0,0,"BG-reimei.jpg",0,110
//Break Periods
//Storyboard Layer 0 (Background)
//Storyboard Layer 1 (Fail)
//Storyboard Layer 2 (Pass)
//Storyboard Layer 3 (Foreground)
//Storyboard Sound Samples

[TimingPoints]
1763,416.666666666667,4,1,0,30,1,0
55096,441.176470588235,4,1,0,30,1,0
55978,476.190476190476,4,1,0,30,1,0
56930,508.474576271186,4,1,0,30,1,0
57438,566.037735849057,4,1,0,30,1,0
58004,625,4,1,0,30,1,0
58629,857.142857142857,4,1,0,30,1,0

[HitObjects]
256,192,96,5,0,0:0:0:0:
256,192,512,1,2,0:0:0:0:
256,192,929,1,2,0:0:0:0:
256,192,1346,1,2,0:0:0:0:
256,192,1554,1,0,0:0:0:0:
256,192,2596,1,0,0:0:0:0:
256,192,3013,1,0,0:0:0:0:
256,192,3221,1,2,0:0:0:0:
256,192,3638,1,2,0:0:0:0:
256,192,3846,1,0,0:0:0:0:
256,192,4054,1,2,0:0:0:0:
256,192,4679,1,2,0:0:0:0:
256,192,4888,1,0,0:0:0:0:
256,192,5304,1,2,0:0:0:0:
256,192,5513,1,2,0:0:0:0:
256,192,5721,1,0,0:0:0:0:
256,192,6138,1,0,0:0:0:0:
256,192,6554,1,2,0:0:0:0:
256,192,6971,1,0,0:0:0:0:
256,192,7179,1,0,0:0:0:0:
256,192,7388,1,2,0:0:0:0:
256,192,8013,1,2,0:0:0:0:
256,192,8221,1,0,0:0:0:0:
256,192,8638,1,0,0:0:0:0:
256,192,9054,1,0,0:0:0:0:
256,192,9679,1,0,0:0:0:0:
256,192,9888,1,2,0:0:0:0:
256,192,10304,1,2,0:0:0:0:
256,192,10513,1,0,0:0:0:0:
256,192,10721,1,2,0:0:0:0:
256,192,11138,1,0,0:0:0:0:
256,192,11346,1,0,0:0:0:0:
256,192,11554,1,2,0:0:0:0:
256,192,11971,1,0,0:0:0:0:
256,192,12179,1,0,0:0:0:0:
256,192,13846,1,0,0:0:0:0:
256,192,14263,1,2,0:0:0:0:
256,192,14679,1,2,0:0:0:0:
256,192,14888,1,0,0:0:0:0:
256,192,15721,1,0,0:0:0:0:
256,192,15929,1,2,0:0:0:0:
256,192,16346,1,2,0:0:0:0:
256,192,16554,1,0,0:0:0:0:
256,192,16971,1,2,0:0:0:0:
256,192,17179,1,0,0:0:0:0:
256,192,17388,1,0,0:0:0:0:
256,192,18013,1,0,0:0:0:0:
256,192,18221,1,2,0:0:0:0:
256,192,18638,1,0,0:0:0:0:
256,192,18846,1,2,0:0:0:0:
256,192,19054,1,0,0:0:0:0:
256,192,19471,1,0,0:0:0:0:
256,192,19888,1,2,0:0:0:0:
256,192,20304,1,0,0:0:0:0:
256,192,20513,1,2,0:0:0:0:
256,192,20721,1,0,0:0:0:0:
256,192,21346,1,0,0:0:0:0:
256,192,21554,1,2,0:0:0:0:
256,192,21971,1,0,0:0:0:0:
256,192,22388,1,0,0:0:0:0:
256,192,23013,1,2,0:0:0:0:
256,192,23221,1,2,0:0:0:0:
256,192,23638,1,0,0:0:0:0:
256,192,24054,1,0,0:0:0:0:
256,192,24471,1,2,0:0:0:0:
256,192,24679,1,2,0:0:0:0:
256,192,24888,1,0,0:0:0:0:
256,192,26138,1,0,0:0:0:0:
256,192,26346,1,0,0:0:0:0:
256,192,26554,1,2,0:0:0:0:
256,192,28429,1,2,0:0:0:0:
256,192,28846,1,2,0:0:0:0:
256,192,29054,1,0,0:0:0:0:
256,192,29471,1,2,0:0:0:0:
256,192,29888,1,0,0:0:0:0:
256,192,30304,1,2,0:0:0:0:
256,192,30721,1,0,0:0:0:0:
256,192,31138,1,2,0:0:0:0:
256,192,31763,1,2,0:0:0:0:
256,192,32179,1,2,0:0:0:0:
256,192,32596,1,0,0:0:0:0:
256,192,33013,1,0,0:0:0:0:
256,192,33429,1,2,0:0:0:0:
256,192,33846,1,0,0:0:0:0:
256,192,34263,1,2,0:0:0:0:
256,192,35096,1,0,0:0:0:0:
256,192,35304,1,0,0:0:0:0:
256,192,35513,1,0,0:0:0:0:
256,192,35721,1,2,0:0:0:0:
256,192,36138,1,0,0:0:0:0:
256,192,36554,1,2,0:0:0:0:
256,192,36971,1,0,0:0:0:0:
256,192,37388,1,2,0:0:0:0:
256,192,37804,1,0,0:0:0:0:
256,192,38221,1,0,0:0:0:0:
256,192,38429,1,2,0:0:0:0:
256,192,39054,1,2,0:0:0:0:
256,192,39263,1,0,0:0:0:0:
256,192,39888,1,0,0:0:0:0:
256,192,40096,1,2,0:0:0:0:
256,192,40721,1,2,0:0:0:0:
256,192,40929,1,0,0:0:0:0:
256,192,41763,1,0,0:0:0:0:
256,192,42388,1,2,0:0:0:0:
256,192,42596,1,0,0:0:0:0:
256,192,43221,1,0,0:0:0:0:
256,192,43429,1,2,0:0:0:0:
256,192,44054,1,2,0:0:0:0:
256,192,44263,1,0,0:0:0:0:
256,192,45096,1,2,0:0:0:0:
256,192,45721,1,0,0:0:0:0:
256,192,45929,1,2,0:0:0:0:
256,192,46554,1,0,0:0:0:0:
256,192,46763,1,2,0:0:0:0:
256,192,47179,1,0,0:0:0:0:
256,192,47596,1,2,0:0:0:0:
256,192,48013,1,0,0:0:0:0:
256,192,48429,1,0,0:0:0:0:
256,192,49888,1,0,0:0:0:0:
256,192,50096,1,2,0:0:0:0:
256,192,50929,1,2,0:0:0:0:
256,192,51763,1,0,0:0:0:0:
256,192,54679,1,2,0:0:0:0:
256,192,54888,1,0,0:0:0:0:
256,192,55096,1,0,0:0:0:0:
256,192,55537,1,2,0:0:0:0:
256,192,55978,1,0,0:0:0:0:
256,192,56454,1,2,0:0:0:0:
256,192,56930,1,0,0:0:0:0:
256,192,57438,1,2,0:0:0:0:
256,192,58004,1,2,0:0:0:0:
256,192,58629,1,0,0:0:0:0:
256,192,58843,1,0,0:0:0:0:
256,192,59057,1,2,0:0:0:0:
