osu file format v14

[General]
AudioFilename: audio.mp3
AudioLeadIn: 2500
PreviewTime: 67
Countdown: 0
SampleSet: Normal
StackLeniency: 0.7
Mode: 3
LetterboxInBreaks: 0
SpecialStyle: 0
WidescreenStoryboard: 1

[Editor]
DistanceSpacing: 0.8
BeatDivisor: 4
GridSize: 4
TimelineZoom: 1

[Metadata]
Title:Platinum Jet
TitleUnicode:プラチナジェット どーなつ◎くいんてっと【オルゴール】 (アニメ「SHIROBAKO」ED)
Artist:R3 Music Box
ArtistUnicode:R3 Music Box
Creator:Acnos
Version:4K Normal
Source:SHIROBAKO
Tags:ne lunar donuts
BeatmapID:1430169
BeatmapSetID:676166

[Difficulty]
HPDrainRate:7
CircleSize:4
OverallDifficulty:8
ApproachRate:5
SliderMultiplier:1.4
SliderTickRate:1

[Events]
//Background and Video events
0,0,"platinum_jet.jpg",0,0
//Break Periods
//Storyboard Layer 0 (Background)
//Storyboard Layer 1 (Fail)
//Storyboard Layer 2 (Pass)
//Storyboard Layer 3 (Foreground)
//Storyboard Sound Samples

[TimingPoints]
67,652.173913043478,4,1,1,5,1,0
10501,-100,4,1,1,5,0,0
20936,-100,4,1,1,5,0,0
31371,-100,4,1,1,5,0,0
36588,-100,4,1,1,5,0,0
44414,-100,4,1,1,5,0,0

[HitObjects]
64,192,67,5,0,0:0:0:70:A#5S.wav
192,192,393,1,0,0:0:0:70:D7S.wav
448,192,719,1,0,0:0:0:70:F7S.wav
192,192,1045,1,0,0:0:0:70:D7S.wav
64,192,1371,128,0,1860:0:0:0:70:A7S.wav
320,192,1860,1,0,0:0:0:70:D7S.wav
320,192,2349,1,0,0:0:0:70:D7S.wav
192,192,2675,1,0,0:0:0:50:A#5S.wav
448,192,2675,1,0,0:0:0:70:F7S.wav
64,192,3001,1,0,0:0:0:70:D7S.wav
192,192,3327,128,0,3816:0:0:0:70:A7S.wav
320,192,3816,1,0,0:0:0:70:D7S.wav
448,192,4143,128,0,4632:0:0:0:70:C8S.wav
320,192,4632,128,0,4958:0:0:0:70:A#7S.wav
192,192,4958,128,0,5284:0:0:0:70:A7S.wav
64,192,5284,128,0,5610:0:0:0:50:A5S.wav
448,192,5284,1,0,0:0:0:70:G7S.wav
320,192,5936,128,0,6262:0:0:0:70:C7S.wav
64,192,6588,128,0,7077:0:0:0:70:C8S.wav
320,192,7077,128,0,7566:0:0:0:70:A#7S.wav
192,192,7566,128,0,7893:0:0:0:70:A7S.wav
64,192,7893,1,0,0:0:0:50:G5S.wav
448,192,7893,128,0,8382:0:0:0:70:G7S.wav
64,192,8382,128,0,8871:0:0:0:70:G7S.wav
320,192,8871,128,0,9197:0:0:0:70:A7S.wav
192,192,9197,1,0,0:0:0:25:LR_NBell_A5.wav
64,192,9523,1,0,0:0:0:25:LR_NBell_C#6.wav
448,192,9849,1,0,0:0:0:25:LR_NBell_D6.wav
192,192,10175,1,0,0:0:0:25:LR_NBell_A5.wav
64,192,10501,1,0,0:0:0:70:A#5S.wav
320,192,10501,1,0,0:0:0:40:LR_NBell_A#4.wav
448,192,10827,1,0,0:0:0:70:D7S.wav
192,192,11153,1,0,0:0:0:70:F7S.wav
448,192,11480,1,0,0:0:0:70:D7S.wav
64,192,11806,128,0,12295:0:0:0:70:A7S.wav
192,192,12295,1,0,0:0:0:70:D7S.wav
192,192,12784,1,0,0:0:0:70:D7S.wav
64,192,13110,1,0,0:0:0:50:A#5S.wav
320,192,13110,1,0,0:0:0:70:F7S.wav
448,192,13436,1,0,0:0:0:70:D7S.wav
192,192,13762,128,0,14251:0:0:0:70:A7S.wav
320,192,14251,1,0,0:0:0:70:D7S.wav
64,192,14577,128,0,15066:0:0:0:70:C8S.wav
192,192,15066,128,0,15393:0:0:0:70:A#7S.wav
320,192,15393,128,0,15719:0:0:0:70:A7S.wav
64,192,15719,1,0,0:0:0:50:A5S.wav
448,192,15719,128,0,16371:0:0:0:70:G7S.wav
192,192,16045,1,0,0:0:0:70:blank.wav
320,192,16371,1,0,0:0:0:70:blank.wav
64,192,16697,1,0,0:0:0:70:blank.wav
448,192,17023,128,0,17512:0:0:0:70:C8S.wav
192,192,17512,128,0,18001:0:0:0:70:A#7S.wav
320,192,18001,128,0,18327:0:0:0:70:A7S.wav
64,192,18327,128,0,18816:0:0:0:50:G5S.wav
448,192,18327,1,0,0:0:0:70:G7S.wav
448,192,18816,128,0,19306:0:0:0:70:G7S.wav
192,192,19306,128,0,19632:0:0:0:70:A7S.wav
64,192,19632,1,0,0:0:0:25:LR_NBell_A5.wav
320,192,19958,1,0,0:0:0:25:LR_NBell_C#6.wav
448,192,20284,1,0,0:0:0:25:LR_NBell_D6.wav
192,192,20610,1,0,0:0:0:25:LR_NBell_A5.wav
64,192,20936,1,0,0:0:0:70:A#5S.wav
320,192,20936,1,0,0:0:0:40:LR_NBell_A#4.wav
448,192,21262,1,0,0:0:0:70:D7S.wav
192,192,21588,1,0,0:0:0:70:F7S.wav
448,192,21914,1,0,0:0:0:70:D7S.wav
64,192,22240,128,0,22730:0:0:0:70:A7S.wav
320,192,22730,1,0,0:0:0:70:D7S.wav
320,192,23219,1,0,0:0:0:70:D7S.wav
192,192,23545,1,0,0:0:0:50:A#5S.wav
448,192,23545,1,0,0:0:0:70:F7S.wav
64,192,23871,1,0,0:0:0:70:D7S.wav
320,192,24197,128,0,24686:0:0:0:70:A7S.wav
192,192,24686,1,0,0:0:0:70:D7S.wav
448,192,25012,128,0,25501:0:0:0:70:C8S.wav
320,192,25501,128,0,25827:0:0:0:70:A#7S.wav
192,192,25827,128,0,26153:0:0:0:70:A7S.wav
64,192,26153,128,0,26480:0:0:0:50:A5S.wav
448,192,26153,1,0,0:0:0:70:G7S.wav
320,192,26806,128,0,27132:0:0:0:70:C7S.wav
192,192,27458,128,0,27947:0:0:0:70:C8S.wav
320,192,27947,128,0,28436:0:0:0:70:A#7S.wav
192,192,28436,128,0,28762:0:0:0:70:A7S.wav
64,192,28762,1,0,0:0:0:50:G5S.wav
448,192,28762,128,0,29251:0:0:0:70:G7S.wav
64,192,29251,128,0,29740:0:0:0:70:G7S.wav
320,192,29740,128,0,30066:0:0:0:70:A7S.wav
448,192,30066,1,0,0:0:0:25:LR_NBell_A5.wav
192,192,30393,1,0,0:0:0:25:LR_NBell_C#6.wav
64,192,30719,1,0,0:0:0:25:LR_NBell_D6.wav
320,192,31045,1,0,0:0:0:25:LR_NBell_A5.wav
192,192,31371,1,0,0:0:0:70:A#5S.wav
448,192,31371,1,0,0:0:0:40:LR_NBell_A#4.wav
64,192,31697,1,0,0:0:0:70:D7S.wav
320,192,32023,1,0,0:0:0:70:F7S.wav
64,192,32349,1,0,0:0:0:70:D7S.wav
448,192,32675,128,0,33164:0:0:0:70:A7S.wav
192,192,33164,1,0,0:0:0:70:D7S.wav
192,192,33653,1,0,0:0:0:70:D7S.wav
64,192,33980,1,0,0:0:0:50:A#5S.wav
320,192,33980,1,0,0:0:0:70:F7S.wav
448,192,34306,1,0,0:0:0:70:D7S.wav
320,192,34632,128,0,35121:0:0:0:70:A7S.wav
192,192,35121,1,0,0:0:0:70:D7S.wav
64,192,35447,128,0,35936:0:0:0:70:C8S.wav
192,192,35936,128,0,36262:0:0:0:70:A#7S.wav
320,192,36262,128,0,36588:0:0:0:70:A7S.wav
448,192,36588,1,0,0:0:0:70:F7S.wav
64,192,36588,128,0,37566:0:0:0:50:G5S.wav
192,192,36914,1,0,0:0:0:70:blank.wav
448,192,37240,1,0,0:0:0:70:blank.wav
320,192,37566,128,0,37730:0:0:0:70:D7S.wav
192,192,37730,128,0,37893:0:0:0:70:E7S.wav
448,192,37893,128,0,38871:0:0:0:70:F7S.wav
320,192,38219,1,0,0:0:0:70:blank.wav
64,192,38545,1,0,0:0:0:70:blank.wav
192,192,38871,128,0,39034:0:0:0:70:D7S.wav
320,192,39034,128,0,39197:0:0:0:70:E7S.wav
448,192,39197,1,0,0:0:0:70:F7S.wav
64,192,39197,128,0,39523:0:0:0:50:A5S.wav
320,192,39523,128,0,39849:0:0:0:70:G7S.wav
192,192,39849,128,0,40175:0:0:0:70:A#7S.wav
448,192,40175,128,0,40827:0:0:0:70:A7S.wav
64,192,40501,1,0,0:0:0:70:blank.wav
320,192,40827,1,0,0:0:0:70:blank.wav
192,192,41153,128,0,41480:0:0:0:70:F7S.wav
320,192,41480,128,0,41806:0:0:0:70:A#7S.wav
64,192,41806,1,0,0:0:0:70:A#5S.wav
448,192,41806,1,0,0:0:0:20:LR_NBell_A#4.wav
192,192,42132,128,0,42458:0:0:0:70:A#7S.wav
448,192,42458,128,0,42784:0:0:0:70:A7S.wav
64,192,42784,128,0,43110:0:0:0:70:F7S.wav
320,192,43110,128,0,43436:0:0:0:70:C8S.wav
320,192,43762,128,0,44088:0:0:0:70:C8S.wav
64,192,44414,128,0,44577:0:0:0:70:C8S.wav
192,192,44577,128,0,44740:0:0:0:70:F7S.wav
448,192,44740,128,0,49306:0:0:0:70:F7S.wav
192,192,49306,1,0,0:0:0:20:C8S.wav
