osu file format v14

[General]
AudioFilename: audio.mp3
AudioLeadIn: 0
PreviewTime: 80
Countdown: 1
SampleSet: None
StackLeniency: 0.7
Mode: 1
LetterboxInBreaks: 0
WidescreenStoryboard: 1

[Editor]
DistanceSpacing: 0.8
BeatDivisor: 4
GridSize: 16
TimelineZoom: 2.350001

[Metadata]
Title:POPPY PAPPY DAY
TitleUnicode:POPPY PAPPY DAY
Artist:R3 Music Box
ArtistUnicode:R3 Music Box
Creator:XYousoro
Version:Muzukashii
Source:ポプテピピック
Tags:pop team epic ending ed poptepipic
BeatmapID:1520835
BeatmapSetID:720317

[Difficulty]
HPDrainRate:7
CircleSize:2
OverallDifficulty:3.5
ApproachRate:5
SliderMultiplier:1.3999999666214
SliderTickRate:1

[Events]
//Background and Video events
0,0,"Pop.Team.Epic.full.2111807.jpg",0,0
//Break Periods
//Storyboard Layer 0 (Background)
//Storyboard Layer 1 (Fail)
//Storyboard Layer 2 (Pass)
//Storyboard Layer 3 (Foreground)
//Storyboard Sound Samples

[TimingPoints]
80,882.352941176471,4,1,0,100,1,0
80,-100,4,1,0,30,0,0
17727,-100,4,1,0,30,0,1
45080,1000,4,1,0,100,1,0
45080,-100,4,1,0,30,0,1
46080,967.741935483871,4,1,0,100,1,0
46080,-100,4,1,0,30,0,0
47047,1090.90909090909,4,1,0,100,1,0
47047,-100,4,1,0,30,0,0
47592,1333.33333333333,4,1,0,100,1,0
47592,-100,4,1,0,30,0,0

[HitObjects]
256,192,80,5,0,0:0:0:0:
256,192,521,1,0,0:0:0:0:
256,192,962,1,8,0:0:0:0:
256,192,1844,1,0,0:0:0:0:
256,192,2285,1,0,0:0:0:0:
256,192,2727,1,8,0:0:0:0:
256,192,2947,1,0,0:0:0:0:
256,192,3609,1,0,0:0:0:0:
256,192,4050,1,0,0:0:0:0:
256,192,4491,1,8,0:0:0:0:
256,192,4932,1,0,0:0:0:0:
256,192,5153,1,0,0:0:0:0:
256,192,5594,1,8,0:0:0:0:
256,192,5815,1,0,0:0:0:0:
256,192,6256,1,8,0:0:0:0:
256,192,6697,1,0,0:0:0:0:
256,192,6918,1,8,0:0:0:0:
256,192,7138,1,0,0:0:0:0:
256,192,7580,1,8,0:0:0:0:
256,192,8021,1,8,0:0:0:0:
256,192,8462,1,0,0:0:0:0:
256,192,8682,1,0,0:0:0:0:
256,192,9124,1,8,0:0:0:0:
256,192,9565,1,0,0:0:0:0:
256,192,9785,1,8,0:0:0:0:
256,192,10227,1,0,0:0:0:0:
256,192,10668,1,0,0:0:0:0:
256,192,10888,1,8,0:0:0:0:
256,192,11109,1,0,0:0:0:0:
256,192,11550,1,8,0:0:0:0:
256,192,11991,1,0,0:0:0:0:
256,192,12212,1,0,0:0:0:0:
256,192,12653,1,8,0:0:0:0:
256,192,12874,1,0,0:0:0:0:
256,192,13315,1,8,0:0:0:0:
256,192,13756,1,0,0:0:0:0:
256,192,14197,1,0,0:0:0:0:
256,192,14638,1,0,0:0:0:0:
256,192,15080,1,8,0:0:0:0:
256,192,15521,1,0,0:0:0:0:
256,192,15741,1,0,0:0:0:0:
256,192,16182,1,8,0:0:0:0:
256,192,16624,1,0,0:0:0:0:
256,192,16844,1,8,0:0:0:0:
256,192,17285,1,0,0:0:0:0:
256,192,17727,1,0,0:0:0:0:
256,192,18168,1,0,0:0:0:0:
256,192,18609,1,8,0:0:0:0:
256,192,19050,1,0,0:0:0:0:
256,192,19271,1,0,0:0:0:0:
256,192,19712,1,8,0:0:0:0:
256,192,20153,1,0,0:0:0:0:
256,192,20374,1,8,0:0:0:0:
256,192,20815,1,0,0:0:0:0:
256,192,21035,1,0,0:0:0:0:
256,192,21256,1,0,0:0:0:0:
256,192,21697,1,0,0:0:0:0:
256,192,22138,1,8,0:0:0:0:
256,192,22580,1,0,0:0:0:0:
256,192,22800,1,0,0:0:0:0:
240,192,23241,1,8,0:0:0:0:
256,192,23682,1,0,0:0:0:0:
256,192,23903,1,8,0:0:0:0:
240,192,24344,1,0,0:0:0:0:
240,192,24785,1,0,0:0:0:0:
240,192,25227,1,0,0:0:0:0:
256,192,25668,1,8,0:0:0:0:
240,192,26109,1,0,0:0:0:0:
240,192,26550,1,0,0:0:0:0:
240,192,26771,1,8,0:0:0:0:
256,192,27212,1,0,0:0:0:0:
256,192,27432,1,8,0:0:0:0:
256,192,27874,1,0,0:0:0:0:
256,192,28315,1,0,0:0:0:0:
256,192,28756,1,0,0:0:0:0:
256,192,29197,1,8,0:0:0:0:
256,192,29638,1,0,0:0:0:0:
256,192,30080,1,0,0:0:0:0:
256,192,30521,1,0,0:0:0:0:
256,192,30962,1,8,0:0:0:0:
256,192,31403,1,0,0:0:0:0:
256,192,31844,1,0,0:0:0:0:
256,192,32727,1,8,0:0:0:0:
256,192,33609,1,0,0:0:0:0:
256,192,34050,1,0,0:0:0:0:
256,192,34491,1,8,0:0:0:0:
256,192,34932,1,0,0:0:0:0:
256,192,35374,1,0,0:0:0:0:
256,192,36256,1,8,0:0:0:0:
256,192,37138,1,0,0:0:0:0:
256,192,37580,1,0,0:0:0:0:
256,192,38021,1,8,0:0:0:0:
256,192,38241,1,0,0:0:0:0:
256,192,38682,1,0,0:0:0:0:
256,192,38903,1,0,0:0:0:0:
256,192,39785,1,8,0:0:0:0:
256,192,40668,1,0,0:0:0:0:
256,192,41109,1,0,0:0:0:0:
256,192,41550,1,8,0:0:0:0:
256,192,42432,5,0,0:0:0:0:
256,192,43315,1,8,0:0:0:0:
256,192,44197,1,8,0:0:0:0:
256,192,44638,1,0,0:0:0:0:
256,192,45080,1,8,0:0:0:0:
256,192,46080,1,8,0:0:0:0:
256,192,47047,1,0,0:0:0:0:
256,192,48258,1,0,0:0:0:0:
256,192,48592,1,0,0:0:0:0:
