osu file format v14

[General]
AudioFilename: audio.mp3
AudioLeadIn: 0
PreviewTime: -1
Countdown: 0
SampleSet: Soft
StackLeniency: 0.4
Mode: 0
LetterboxInBreaks: 0
WidescreenStoryboard: 1

[Editor]
DistanceSpacing: 0.8
BeatDivisor: 4
GridSize: 8
TimelineZoom: 1

[Metadata]
Title:Old Yuanxian/Touhou Shinreibyou - Ten Desires
TitleUnicode:Old Yuanxian/Touhou Shinreibyou - Ten Desires
Artist:R3 Music Box
ArtistUnicode:R3 Music Box
Creator:Mikojel
Version:Lost
Source:
Tags:
BeatmapID:1772462
BeatmapSetID:846459

[Difficulty]
HPDrainRate:7
CircleSize:4.2
OverallDifficulty:6
ApproachRate:8.8
SliderMultiplier:1.6
SliderTickRate:1

[Events]
//Background and Video events
0,0,"761549.jpg",0,0
//Break Periods
//Storyboard Layer 0 (Background)
//Storyboard Layer 1 (Fail)
//Storyboard Layer 2 (Pass)
//Storyboard Layer 3 (Foreground)
//Storyboard Sound Samples

[TimingPoints]
95,454.545454545455,4,2,1,50,1,0
95,-100,4,2,1,40,0,0
28274,-66.6666666666667,4,2,1,50,0,1
28729,-71.4285714285714,4,2,1,50,0,1
29183,-100,4,2,1,50,0,1
30093,-111.111111111111,4,2,1,50,0,1
31002,-66.6666666666667,4,2,1,50,0,1
31570,-80,4,2,1,50,0,1
31797,-100,4,2,1,50,0,1
31911,-133.333333333333,4,2,1,50,0,1
32820,-62.5,4,2,1,50,0,1
33729,-62.5,4,2,1,50,0,1
34638,-57.1428571428571,4,2,1,50,0,1
35547,-55.5555555555556,4,2,1,50,0,1
36002,-50,4,2,1,50,0,1
36229,-50,4,2,1,40,0,1
36343,-66.6666666666667,4,2,1,50,0,1
60605,468.75,4,2,1,50,1,1
61369,491.803278688525,4,2,1,50,1,1
62168,545.454545454546,4,2,1,50,1,1
62168,-100,4,2,1,30,0,0
62713,600,4,2,1,30,1,0
63313,666.666666666667,4,2,1,30,1,0
63646,705.882352941176,4,2,1,30,1,0
64351,800,4,2,1,30,1,0

[Colours]
Combo1 : 94,223,198
Combo2 : 11,141,249
Combo3 : 252,154,196

[HitObjects]
124,56,95,5,4,2:2:0:0:
145,157,549,2,0,P|106:163|70:147,1,80,0|0,2:2|2:2,2:2:0:0:
14,231,1004,1,0,2:2:0:0:
178,247,1458,5,0,2:2:0:0:
245,140,1685,2,0,P|245:159|250:179,1,40,0|0,2:2|2:2,2:2:0:0:
274,243,1913,1,0,2:2:0:0:
119,258,2140,1,0,2:2:0:0:
352,210,2367,1,0,2:2:0:0:
390,313,2595,2,0,L|376:275,2,40,0|0|0,2:2|2:2|2:2,2:2:0:0:
461,142,3049,1,0,2:2:0:0:
471,272,3276,1,0,2:2:0:0:
352,210,3504,1,0,2:2:0:0:
480,341,3731,6,0,P|444:357|405:351,1,80,0|0,2:2|2:2,2:2:0:0:
290,242,4185,1,0,2:0:0:0:
252,356,4413,1,0,2:0:0:0:
340,183,4640,2,0,P|359:217|363:257,1,80,0|0,2:0|2:0,2:0:0:0:
267,248,5095,1,0,2:0:0:0:
158,153,5322,5,0,2:2:0:0:
387,280,5549,1,0,2:2:0:0:
272,106,5776,1,0,2:2:0:0:
148,266,6004,1,0,2:2:0:0:
320,160,6231,1,0,2:2:0:0:
248,203,6458,2,0,P|272:233|311:245,1,80,0|0,2:2|2:2,2:2:0:0:
97,61,7140,5,0,2:2:0:0:
362,46,7367,1,4,2:2:0:0:
231,127,7822,2,0,P|252:160|289:176,1,80,0|0,2:2|2:2,2:2:0:0:
280,273,8276,1,0,2:2:0:0:
403,195,8731,5,0,2:2:0:0:
385,97,8958,2,0,P|366:102|349:111,1,40,0|0,2:2|2:2,2:2:0:0:
480,132,9185,1,0,2:2:0:0:
344,220,9413,1,0,2:2:0:0:
494,286,9640,1,0,2:2:0:0:
450,191,9867,6,0,P|442:209|439:229,1,40,0|0,2:2|2:2,2:2:0:0:
365,144,10095,1,0,2:2:0:0:
390,275,10322,1,0,2:2:0:0:
273,129,10549,1,0,2:2:0:0:
184,225,10776,1,0,2:2:0:0:
63,194,11004,6,0,P|83:159|114:136,1,80,0|0,2:2|2:2,2:2:0:0:
256,127,11458,1,0,2:2:0:0:
185,40,11685,1,0,2:2:0:0:
253,259,11913,2,0,P|220:234|206:198,1,80,0|0,2:2|2:2,2:2:0:0:
251,65,12367,1,0,2:2:0:0:
155,123,12594,1,0,2:2:0:0:
254,178,12822,1,0,2:2:0:0:
254,178,13049,2,0,P|271:137|261:86,2,80,0|0|0,2:0|2:0|2:0,2:0:0:0:
287,268,13731,1,0,2:0:0:0:
246,163,13958,5,0,2:2:0:0:
378,191,14185,1,0,2:2:0:0:
314,48,14413,1,0,2:2:0:0:
171,197,14640,1,4,2:2:0:0:
250,204,15095,2,0,P|247:164|223:133,1,80,0|0,2:2|2:2,2:2:0:0:
274,82,15549,1,0,2:2:0:0:
60,23,16004,5,0,2:2:0:0:
31,154,16231,2,0,P|39:136|43:117,2,40,0|0|0,2:2|2:2|2:2,2:2:0:0:
132,22,16685,1,0,2:2:0:0:
167,196,16913,1,0,2:2:0:0:
122,313,17140,2,0,L|136:275,2,40,0|0|0,2:2|2:2|2:2,2:2:0:0:
28,131,17594,1,0,2:2:0:0:
24,281,17821,1,0,2:2:0:0:
129,184,18049,1,0,2:2:0:0:
55,193,18276,6,0,P|69:229|100:254,1,80,0|0,2:2|2:2,2:2:0:0:
179,222,18731,1,0,2:2:0:0:
101,336,18958,1,0,2:2:0:0:
267,310,19185,2,0,P|228:318|191:303,1,80,0|0,2:2|2:2,2:2:0:0:
132,298,19640,1,0,2:2:0:0:
117,104,19867,5,0,2:2:0:0:
235,307,20095,1,0,2:2:0:0:
262,136,20322,1,0,2:2:0:0:
165,242,20549,1,0,2:2:0:0:
241,201,20776,1,0,2:2:0:0:
107,203,21004,2,0,P|94:240|105:278,1,80,0|0,2:2|2:2,2:2:0:0:
249,322,21685,5,0,2:2:0:0:
465,221,21913,1,4,2:2:0:0:
397,112,22367,2,0,P|362:130|345:166,1,80,0|0,2:2|2:2,2:2:0:0:
226,147,22822,1,0,2:2:0:0:
366,20,23276,5,0,2:2:0:0:
461,78,23504,2,0,P|451:94|435:107,1,40,0|0,2:2|2:2,2:2:0:0:
478,0,23731,1,0,2:2:0:0:
363,135,23958,1,0,2:2:0:0:
512,319,24185,1,0,2:2:0:0:
404,280,24413,2,0,P|411:262|424:246,1,40,0|0,2:2|2:2,2:2:0:0:
327,307,24640,1,0,2:2:0:0:
277,150,24867,1,0,2:2:0:0:
173,248,25095,2,0,P|200:279|235:294,1,80,0|0,2:2|2:2,2:2:0:0:
332,185,25549,5,0,2:2:0:0:
426,293,25776,1,0,2:2:0:0:
402,171,26004,1,0,2:2:0:0:
355,306,26231,1,0,2:2:0:0:
450,224,26458,2,0,P|472:188|464:136,2,80,0|0|0,2:0|2:0|2:0,2:0:0:0:
308,252,27140,1,0,2:2:0:0:
417,286,27367,1,0,2:2:0:0:
417,286,27595,1,0,2:2:0:0:
484,303,27822,2,0,P|465:337|430:354,1,80,0|0,2:2|2:2,2:2:0:0:
417,286,28277,5,2,2:2:0:0:
364,257,28390,1,0,2:2:0:0:
305,250,28504,1,0,2:2:0:0:
247,265,28617,1,0,2:2:0:0:
199,301,28731,5,2,2:2:0:0:
146,315,28845,1,0,2:2:0:0:
96,293,28959,1,0,2:2:0:0:
70,244,29072,1,0,2:2:0:0:
80,188,29185,5,6,2:0:0:0:
106,158,29298,1,0,2:0:0:0:
143,145,29412,1,0,2:0:0:0:
182,153,29525,1,0,2:0:0:0:
211,179,29640,2,0,P|219:197|220:216,3,40,2|0|0|0,2:0|2:0|2:0|2:0,2:0:0:0:
200,38,30095,5,2,2:0:0:0:
212,71,30208,1,0,2:0:0:0:
238,95,30322,1,0,2:0:0:0:
272,105,30435,1,0,2:0:0:0:
307,98,30549,2,0,P|325:97|342:101,3,35.9999989013672,2|0|0|0,2:0|2:0|2:0|2:0,2:0:0:0:
365,250,31004,5,6,2:2:0:0:
403,217,31117,1,0,2:2:0:0:
425,172,31231,1,0,2:2:0:0:
431,122,31345,1,0,2:2:0:0:
414,72,31458,6,0,P|394:51|366:40,1,60.0000022888184,2|0,2:0|2:0,2:0:0:0:
292,63,31685,2,0,P|303:85|321:101,1,50,0|0,2:0|2:0,2:0:0:0:
212,106,31913,1,2,2:0:0:0:
223,133,32026,1,0,2:0:0:0:
241,157,32140,1,0,2:0:0:0:
265,175,32253,1,0,2:0:0:0:
293,185,32367,2,0,P|308:187|323:188,3,30.0000011444092,2|0|0|0,2:0|2:0|2:0|2:0,2:0:0:0:
387,177,32822,5,6,2:2:0:0:
369,230,32935,1,0,2:2:0:0:
327,267,33049,1,0,2:2:0:0:
272,279,33162,1,0,2:2:0:0:
218,265,33276,2,0,P|189:277|158:276,3,64,2|0|0|0,2:0|2:0|2:0|2:0,2:0:0:0:
27,218,33730,5,6,2:2:0:0:
89,231,33844,1,0,2:2:0:0:
145,202,33958,1,0,2:2:0:0:
171,145,34071,1,0,2:2:0:0:
156,83,34185,2,0,P|175:59|205:50,3,64,2|0|0|0,2:0|2:0|2:0|2:0,2:0:0:0:
363,45,34640,5,6,2:2:0:0:
367,113,34753,1,0,2:2:0:0:
332,173,34867,1,0,2:2:0:0:
270,202,34980,1,0,2:2:0:0:
201,192,35094,1,6,2:2:0:0:
143,156,35208,1,0,2:2:0:0:
77,174,35322,1,0,2:2:0:0:
44,233,35435,1,0,2:2:0:0:
70,299,35549,5,6,2:2:0:0:
133,331,35662,1,0,2:2:0:0:
203,320,35776,1,0,2:2:0:0:
254,271,35889,1,0,2:2:0:0:
268,202,36003,1,6,2:2:0:0:
232,134,36117,1,0,2:0:0:0:
270,69,36231,1,6,2:0:0:0:
347,68,36344,1,0,2:0:0:0:
386,134,36458,5,6,2:0:0:0:
140,286,36913,1,2,2:2:0:0:
91,63,37140,1,0,2:2:0:0:
109,349,37367,2,0,P|70:307|76:249,1,120.000004577637,2|0,2:2|2:2,2:2:0:0:
240,98,37822,5,2,2:0:0:0:
347,191,38049,2,0,P|328:215|302:229,1,60.0000022888184,0|0,2:0|2:0,2:0:0:0:
280,157,38276,1,2,2:0:0:0:
204,257,38504,5,0,2:0:0:0:
333,74,38731,1,2,2:0:0:0:
350,245,38958,1,0,2:0:0:0:
122,52,39185,1,2,2:0:0:0:
131,85,39299,1,0,2:0:0:0:
390,336,39640,1,2,2:0:0:0:
378,292,39754,1,0,2:0:0:0:
423,39,40095,1,2,2:0:0:0:
256,71,40322,5,0,2:0:0:0:
385,139,40549,1,2,2:0:0:0:
191,130,40776,1,0,2:0:0:0:
387,118,41004,1,2,2:0:0:0:
184,209,41231,2,0,B|243:221|243:221|293:188,1,120.000004577637,0|2,2:0|2:0,2:0:0:0:
361,62,41685,5,0,2:0:0:0:
86,75,41913,1,2,2:0:0:0:
389,208,42140,1,0,2:0:0:0:
237,46,42367,1,2,2:0:0:0:
145,246,42595,1,0,2:0:0:0:
384,138,42822,2,0,P|326:137|281:100,2,120.000004577637,2|0|0,2:0|2:0|2:0,2:0:0:0:
75,66,43504,5,0,2:0:0:0:
228,72,43731,6,0,P|196:24|138:16,1,120.000004577637,4|0,2:0|2:0,2:0:0:0:
138,219,44185,1,2,2:0:0:0:
124,50,44413,1,0,2:0:0:0:
139,231,44640,2,0,P|173:278|231:290,1,120.000004577637,2|0,2:0|2:0,2:0:0:0:
383,152,45095,1,2,2:0:0:0:
201,72,45322,1,2,2:0:0:0:
201,72,45435,1,0,2:0:0:0:
201,72,45549,1,2,2:0:0:0:
132,273,45776,5,0,2:0:0:0:
64,82,46004,1,2,2:0:0:0:
222,210,46231,1,0,2:0:0:0:
40,51,46458,1,2,2:0:0:0:
95,328,46685,1,0,2:0:0:0:
24,24,46913,1,2,2:0:0:0:
282,192,47140,2,0,P|321:209|289:181,1,120.000004577637,0|0,2:0|2:0,2:0:0:0:
203,204,47670,5,0,2:0:0:0:
401,119,47973,1,0,2:0:0:0:
375,333,48276,1,0,2:0:0:0:
150,83,48579,5,0,2:0:0:0:
322,211,48882,1,0,2:0:0:0:
124,296,49185,1,0,2:0:0:0:
0,363,50095,5,0,2:0:0:0:
6,314,50322,1,0,2:0:0:0:
75,341,50549,1,0,2:0:0:0:
51,237,50776,1,0,2:0:0:0:
178,273,51004,2,0,P|204:222|185:167,1,120.000004577637,2|0,2:0|2:0,2:0:0:0:
51,237,51458,1,0,2:0:0:0:
168,363,51685,6,0,P|175:305|220:269,1,120.000004577637,0|0,2:0|2:0,2:0:0:0:
239,341,52140,2,0,P|295:356|345:326,1,120.000004577637,0|0,2:0|2:0,2:0:0:0:
357,281,52481,1,0,2:0:0:0:
343,244,52595,1,0,2:0:0:0:
277,281,52822,6,0,P|271:223|306:176,1,120.000004577637,2|0,2:0|2:0,2:0:0:0:
417,272,53276,1,0,2:0:0:0:
324,168,53504,2,0,P|267:181|230:226,1,120.000004577637,0|0,2:0|2:0,2:0:0:0:
169,283,53958,2,0,P|209:325|267:322,1,120.000004577637,0|0,2:0|2:0,2:0:0:0:
293,292,54299,1,0,2:0:0:0:
300,253,54413,1,0,2:0:0:0:
283,215,54526,2,0,P|302:131|383:100,1,180.000006866455,2|0,2:0|2:0,2:0:0:0:
373,193,55095,5,2,2:0:0:0:
438,106,55322,1,0,2:0:0:0:
258,143,55549,1,2,2:0:0:0:
450,223,55776,1,0,2:0:0:0:
345,32,56004,1,2,2:0:0:0:
288,286,56231,1,0,2:0:0:0:
436,98,56458,2,0,P|412:46|356:28,1,120.000004577637,2|0,2:0|2:0,2:0:0:0:
324,44,56761,5,2,2:0:0:0:
215,309,57064,1,2,2:0:0:0:
436,229,57367,1,2,2:0:0:0:
455,361,58049,5,0,2:0:0:0:
455,361,58163,1,0,2:0:0:0:
453,360,58276,2,0,P|399:340|380:285,1,120.000004577637,6|0,2:0|2:0,2:0:0:0:
468,134,58731,5,2,2:0:0:0:
238,220,58958,1,0,2:0:0:0:
345,86,59185,1,2,2:0:0:0:
440,198,59413,1,0,2:0:0:0:
195,115,59640,1,2,2:0:0:0:
173,278,59867,2,0,P|220:312|277:302,1,120.000004577637,0|2,2:0|2:0,2:0:0:0:
296,270,60208,2,0,P|287:241|291:211,1,60.0000022888184,0|0,2:0|2:0,2:0:0:0:
464,108,60605,6,0,P|451:123|443:141,1,40,0|0,2:0|2:0,2:0:0:0:
380,162,60839,2,0,P|376:142|379:122,1,40,0|0,2:0|2:0,2:0:0:0:
327,81,61073,1,0,0:0:0:0:
257,186,61369,6,0,P|243:173|233:156,1,40,0|0,2:0|2:0,2:0:0:0:
163,147,61614,2,0,P|163:166|169:185,1,40,0|0,2:0|2:0,2:0:0:0:
129,246,61860,1,0,0:0:0:0:
299,205,62168,6,0,P|259:203|222:218,1,80,2|0,2:0|2:0,2:0:0:0:
366,193,62713,2,0,P|348:157|313:139,1,80,2|0,2:0|2:0,2:0:0:0:
409,248,63313,1,2,2:0:0:0:
361,298,63646,2,0,P|393:319|432:314,1,80,2|0,2:0|2:0,2:0:0:0:
295,277,64351,2,0,P|288:295|288:315,2,40,2|0|0,2:0|2:0|2:0,2:0:0:0:
256,192,64851,12,0,67551,2:0:0:0:
