osu file format v14

[General]
AudioFilename: audio.mp3
AudioLeadIn: 0
PreviewTime: 17
Countdown: 0
SampleSet: Soft
StackLeniency: 0.7
Mode: 0
LetterboxInBreaks: 0
WidescreenStoryboard: 0

[Editor]
DistanceSpacing: 2
BeatDivisor: 8
GridSize: 32
TimelineZoom: 3.199999

[Metadata]
Title:No title
TitleUnicode:No title
Artist:R3 Music Box
ArtistUnicode:R3 Music Box
Creator:sahuang
Version:Insane
Source:
Tags:Giga-P gigap REOL feat. Hatsune Miku れをる 初音ミク cellina doyak left
BeatmapID:1106611
BeatmapSetID:520938

[Difficulty]
HPDrainRate:6
CircleSize:4.5
OverallDifficulty:7.8
ApproachRate:8
SliderMultiplier:1.4
SliderTickRate:1

[Events]
//Background and Video events
0,0,"no title.jpg",0,0
//Break Periods
//Storyboard Layer 0 (Background)
//Storyboard Layer 1 (Fail)
//Storyboard Layer 2 (Pass)
//Storyboard Layer 3 (Foreground)
//Storyboard Sound Samples

[TimingPoints]
410,348.837209302326,4,2,1,40,1,0
44372,375,4,2,1,30,1,0
44372,-111.111111111111,4,2,1,30,0,0
45122,387.096774193548,4,2,1,25,1,0
45122,-125,4,2,1,25,0,0
45896,405.405405405405,4,2,1,20,1,0
46706,476.190476190476,4,2,1,20,1,0
46706,-142.857142857143,4,2,1,20,0,0
47658,545.454545454546,4,2,1,15,1,0
48203,405.405405405405,4,2,1,10,1,0
48203,-166.666666666667,4,2,1,10,0,0

[Colours]
Combo1 : 0,108,240
Combo2 : 113,216,255

[HitObjects]
194,34,61,5,2,0:0:0:0:
148,128,235,1,0,0:0:0:0:
283,89,410,6,0,P|361:82|427:101,2,140,8|0|2,0:0|0:0|0:0,0:0:0:0:
283,89,1456,1,2,0:0:0:0:
304,191,1630,1,0,0:0:0:0:
218,253,1805,6,0,L|130:238,1,70,2|0,0:0|0:0,0:0:0:0:
84,158,2154,2,0,L|153:146,1,70,0|0,0:0|0:0,0:0:0:0:
253,113,2503,1,2,0:0:0:0:
315,198,2677,1,0,0:0:0:0:
253,283,2851,1,2,0:0:0:0:
153,251,3026,1,0,0:0:0:0:
315,198,3200,6,0,P|379:169|451:194,2,140,8|0|2,0:0|0:0|0:0,0:0:0:0:
297,301,4072,1,0,0:0:0:0:
192,290,4247,1,2,0:0:0:0:
192,290,4421,1,0,0:0:0:0:
115,217,4596,6,0,P|101:178|106:139,1,70,2|0,0:0|0:0,0:0:0:0:
191,94,4944,2,0,P|205:55|200:16,1,70,2|0,0:0|0:0,0:0:0:0:
98,41,5293,1,0,0:0:0:0:
191,94,5468,1,8,0:0:0:0:
282,145,5642,1,2,0:0:0:0:
375,198,5816,1,8,0:0:0:0:
285,252,5991,6,0,P|273:292|279:333,1,70,4|0,0:0|0:0,0:0:0:0:
408,363,6340,2,0,P|420:323|414:282,1,70,2|0,0:0|0:0,0:0:0:0:
375,198,6689,1,8,0:0:0:0:
285,252,6863,1,0,0:0:0:0:
282,145,7037,1,2,0:0:0:0:
192,199,7212,1,0,0:0:0:0:
282,145,7386,6,0,L|261:35,1,70,4|0,0:0|0:0,0:0:0:0:
145,9,7735,2,0,L|124:119,1,70,2|0,0:0|0:0,0:0:0:0:
60,155,8084,1,0,0:0:0:0:
195,123,8258,1,8,0:0:0:0:
163,212,8433,1,2,0:0:0:0:
131,77,8607,1,8,0:0:0:0:
282,145,8782,6,0,L|387:139,1,70,4|0,0:0|0:0,0:0:0:0:
423,260,9130,2,0,L|353:256,1,70,2|0,0:0|0:0,0:0:0:0:
242,342,9479,1,0,0:0:0:0:
242,342,9654,1,8,0:0:0:0:
277,206,9828,1,2,0:0:0:0:
277,206,10003,1,8,0:0:0:0:
107,231,10177,6,0,P|101:196|111:162,2,70,2|0|0,0:0|0:0|0:0,0:0:0:0:
205,137,10700,2,0,P|137:72|29:108,1,210,2|2,0:0|0:0,0:0:0:0:
50,205,11398,1,0,0:0:0:0:
205,137,11572,6,0,B|274:122|274:122|343:135,2,140,8|0|2,0:0|0:0|0:0,0:0:0:0:
101,320,12619,2,0,L|185:303,1,70,2|0,0:0|0:0,0:0:0:0:
272,285,12968,6,0,P|325:281|401:331,1,140,2|0,0:0|0:0,0:0:0:0:
216,217,13665,1,2,0:0:0:0:
290,143,13840,1,0,0:0:0:0:
216,70,14014,1,2,0:0:0:0:
142,143,14189,1,0,0:0:0:0:
290,143,14363,6,0,L|465:141,2,140,8|0|2,0:0|0:0|0:0,0:0:0:0:
150,300,15410,2,0,L|222:299,1,70,2|0,0:0|0:0,0:0:0:0:
321,272,15758,6,0,B|397:250|394:288|461:268,2,140,2|2|0,0:0|0:0|0:0,0:0:0:0:
321,272,16805,1,2,0:0:0:0:
249,195,16979,1,8,0:0:0:0:
209,358,17154,5,4,0:0:0:0:
209,358,17503,1,2,0:0:0:0:
112,318,17677,1,0,0:0:0:0:
72,220,17852,1,8,0:0:0:0:
112,123,18026,1,0,0:0:0:0:
209,83,18200,1,2,0:0:0:0:
307,123,18374,1,0,0:0:0:0:
112,123,18549,6,0,P|103:84|115:36,1,70,4|0,0:0|0:0,0:0:0:0:
307,123,18898,2,0,P|316:162|304:210,1,70,2|0,0:0|0:0,0:0:0:0:
208,168,19247,1,0,0:0:0:0:
329,283,19421,1,8,0:0:0:0:
196,312,19596,1,2,0:0:0:0:
311,191,19770,1,8,0:0:0:0:
180,239,19944,6,0,L|107:233,1,70,4|0,0:0|0:0,0:0:0:0:
168,105,20293,2,0,L|237:99,1,70,2|0,0:0|0:0,0:0:0:0:
325,41,20642,1,0,0:0:0:0:
332,145,20816,1,8,0:0:0:0:
339,249,20991,1,2,0:0:0:0:
325,41,21340,5,2,0:0:0:0:
332,145,21689,1,0,0:0:0:0:
339,249,22037,1,0,0:0:0:0:
296,343,22386,5,2,0:0:0:0:
339,249,22560,1,0,0:0:0:0:
208,292,22735,6,0,B|157:280|157:280|115:304|66:296,2,140,8|0|2,0:0|0:0|0:0,0:0:0:0:
77,127,23781,1,2,0:0:0:0:
151,52,23955,1,0,0:0:0:0:
249,91,24131,6,0,L|337:106,1,70,2|0,0:0|0:0,0:0:0:0:
382,185,24480,2,0,L|313:197,1,70,0|0,0:0|0:0,0:0:0:0:
218,240,24829,1,2,0:0:0:0:
156,155,25004,1,0,0:0:0:0:
218,70,25178,1,2,0:0:0:0:
318,102,25352,1,0,0:0:0:0:
156,155,25526,6,0,B|109:165|109:165|59:151|59:151|3:162,2,140,8|0|2,0:0|0:0|0:0,0:0:0:0:
205,62,26397,1,0,0:0:0:0:
306,91,26572,1,2,0:0:0:0:
261,186,26746,1,0,0:0:0:0:
366,180,26921,6,0,P|379:212|378:247,1,70,2|0,0:0|0:0,0:0:0:0:
288,300,27269,2,0,P|274:339|279:378,1,70,2|0,0:0|0:0,0:0:0:0:
379,350,27618,1,0,0:0:0:0:
288,300,27793,1,8,0:0:0:0:
244,204,27968,1,2,0:0:0:0:
153,154,28143,1,8,0:0:0:0:
150,261,28316,6,0,P|162:301|156:342,1,70,4|0,0:0|0:0,0:0:0:0:
27,372,28665,2,0,P|15:332|21:291,1,70,2|0,0:0|0:0,0:0:0:0:
60,207,29014,1,8,0:0:0:0:
150,261,29189,1,0,0:0:0:0:
153,154,29363,1,2,0:0:0:0:
244,204,29537,1,0,0:0:0:0:
223,65,29712,6,0,P|257:60|291:71,1,70,4|0,0:0|0:0,0:0:0:0:
377,181,30061,2,0,P|411:186|445:175,1,70,2|0,0:0|0:0,0:0:0:0:
401,41,30410,1,0,0:0:0:0:
377,181,30584,1,8,0:0:0:0:
290,70,30758,1,2,0:0:0:0:
266,210,30932,1,8,0:0:0:0:
117,123,31107,6,0,L|47:119,1,70,4|0,0:0|0:0,0:0:0:0:
118,238,31456,2,0,L|187:234,1,70,2|0,0:0|0:0,0:0:0:0:
244,145,31805,1,0,0:0:0:0:
244,145,31979,1,8,0:0:0:0:
214,8,32154,1,2,0:0:0:0:
214,8,32328,1,8,0:0:0:0:
359,108,32502,6,0,P|365:143|355:177,2,70,2|0|0,0:0|0:0|0:0,0:0:0:0:
261,203,33025,2,0,P|329:268|437:232,1,210,2|2,0:0|0:0,0:0:0:0:
399,138,33723,1,0,0:0:0:0:
261,203,33898,6,0,P|185:211|118:164,2,140,8|0|2,0:0|0:0|0:0,0:0:0:0:
59,141,34944,2,0,P|49:169|56:210,1,70,2|0,0:0|0:0,0:0:0:0:
118,293,35293,6,0,P|180:318|259:309,1,140,2|0,0:0|0:0,0:0:0:0:
407,171,35990,1,2,0:0:0:0:
306,144,36165,1,0,0:0:0:0:
334,44,36339,1,2,0:0:0:0:
434,70,36514,1,0,0:0:0:0:
306,144,36688,6,0,B|250:154|250:154|166:137,2,140,8|0|2,0:0|0:0|0:0,0:0:0:0:
33,74,37735,2,0,P|21:104|25:147,1,70,2|0,0:0|0:0,0:0:0:0:
103,212,38084,6,0,B|119:278|119:278|109:350,2,140,2|2|0,0:0|0:0|0:0,0:0:0:0:
103,212,39130,1,2,0:0:0:0:
155,120,39305,1,8,0:0:0:0:
231,270,39479,5,4,0:0:0:0:
231,270,39828,1,2,0:0:0:0:
316,209,40002,1,0,0:0:0:0:
333,105,40177,1,8,0:0:0:0:
273,19,40351,1,0,0:0:0:0:
169,2,40525,1,2,0:0:0:0:
83,63,40699,1,0,0:0:0:0:
273,19,40874,6,0,P|312:10|360:22,1,70,4|0,0:0|0:0,0:0:0:0:
228,192,41223,2,0,P|189:201|141:189,1,70,2|0,0:0|0:0,0:0:0:0:
310,107,41572,1,0,0:0:0:0:
281,272,41747,1,8,0:0:0:0:
159,196,41921,1,2,0:0:0:0:
188,361,42096,1,8,0:0:0:0:
281,272,42269,6,0,L|354:278,1,70,4|0,0:0|0:0,0:0:0:0:
188,361,42618,2,0,L|118:366,1,70,2|0,0:0|0:0,0:0:0:0:
108,261,42967,1,0,0:0:0:0:
101,157,43142,1,8,0:0:0:0:
94,53,43316,1,2,0:0:0:0:
282,209,43665,6,0,P|344:240|410:224,1,140,2|0,0:0|0:0,0:0:0:0:
232,123,44372,6,0,P|189:168|186:230,1,125.999996154785,2|0,0:0|0:0,0:0:0:0:
356,127,45122,6,0,L|352:-22,1,112,2|0,0:0|0:0,0:0:0:0:
236,119,45896,5,2,0:0:0:0:
441,161,46301,1,0,0:0:0:0:
327,235,46706,6,0,P|319:282|336:344,2,97.9999970092774,2|0|2,0:0|0:0|0:0,0:0:0:0:
441,161,48203,6,0,L|500:162,2,41.9999987182618,2|0|8,0:0|0:0|0:0,0:0:0:0:
