osu file format v14

[General]
AudioFilename: audio.mp3
AudioLeadIn: 0
PreviewTime: 0
Countdown: 0
SampleSet: Soft
StackLeniency: 0.7
Mode: 0
LetterboxInBreaks: 0
EpilepsyWarning: 1
WidescreenStoryboard: 1

[Editor]
DistanceSpacing: 1.2
BeatDivisor: 4
GridSize: 4
TimelineZoom: 1

[Metadata]
Title:Natsu o Machi Kirenakute
TitleUnicode:夏を待ちきれなくて
Artist:R3 Music Box
ArtistUnicode:R3 Music Box
Creator:bossandy
Version:Normal
Source:
Tags:TUBE 前田亘輝 Maeda Nobuteru 春畑道哉 Haruhata Michiya 角野秀行 Kakuno Hideyuki 松本玲二 Matsumoto Ryoji 浪漫の夏 TUBEst II BEST of TUBEst ~All Time Best~ Instrument
BeatmapID:1793890
BeatmapSetID:858368

[Difficulty]
HPDrainRate:2
CircleSize:3.5
OverallDifficulty:2
ApproachRate:4
SliderMultiplier:1.2
SliderTickRate:1

[Events]
//Background and Video events
0,0,"BG.jpg",0,0
//Break Periods
//Storyboard Layer 0 (Background)
//Storyboard Layer 1 (Fail)
//Storyboard Layer 2 (Pass)
//Storyboard Layer 3 (Foreground)
Sprite,Foreground,Centre,"highlight.png",0,0 C,0,1481,,255,197,168 M,0,1481,1573,408,168,411.8649,153.5065 F,2,1481,2591,1,0 S,2,1481,2591,0.9,0.18 P,0,1481,2591,A M,0,1573,1666,411.8649,153.5065,415.7299,139.013 M,0,1666,1758,415.7299,139.013,419.5948,124.5194 M,0,1758,1851,419.5948,124.5194,423.4597,110.0259 M,0,1851,1943,423.4597,110.0259,419.5948,124.5194 M,0,1943,2036,419.5948,124.5194,415.7299,139.013 M,0,2036,2129,415.7299,139.013,411.8649,153.5065 M,0,2129,2221,411.8649,153.5065,408,168
Sprite,Foreground,Centre,"highlight.png",0,0 C,0,2592,,255,197,168 M,0,2592,2684,356,224,359.638,238.5521 F,2,2592,3702,1,0 S,2,2592,3702,0.9,0.18 P,0,2592,3702,A M,0,2684,2777,359.638,238.5521,363.2761,253.1043 M,0,2777,2869,363.2761,253.1043,366.9141,267.6564 M,0,2869,2962,366.9141,267.6564,370.5521,282.2086 M,0,2962,3054,370.5521,282.2086,374.1902,296.7607 M,0,3054,3147,374.1902,296.7607,377.8282,311.3128 M,0,3147,3240,377.8282,311.3128,381.4662,325.865 M,0,3240,3332,381.4662,325.865,385.1043,340.4171
Sprite,Foreground,Centre,"highlight.png",0,0 C,0,3703,,255,197,168 M,0,3703,3795,324,388,309.2041,385.534 F,2,3703,4443,1,0 S,2,3703,4443,0.9,0.18 P,0,3703,4443,A M,0,3795,3888,309.2041,385.534,294.4082,383.068 M,0,3888,3980,294.4082,383.068,279.6123,380.6021 M,0,3980,4073,279.6123,380.6021,264.8163,378.136
Sprite,Foreground,Centre,"highlight.png",212,320 C,0,4443,,255,197,168 F,2,4443,4813,1,0 S,2,4443,4813,0.9,0.18 P,0,4443,4813,A
Sprite,Foreground,Centre,"highlight.png",0,0 C,0,4814,,232,13,46 M,0,4814,4906,144,360,129.9946,354.7675 F,2,4814,5924,1,0 S,2,4814,5924,0.9,0.18 P,0,4814,5924,A M,0,4906,4999,129.9946,354.7675,116.8475,347.7069 M,0,4999,5091,116.8475,347.7069,104.9959,338.6053 M,0,5091,5184,104.9959,338.6053,94.7486,327.688 M,0,5184,5276,94.7486,327.688,86.88565,314.9728 M,0,5276,5369,86.88565,314.9728,80.84525,301.3289 M,0,5369,5462,80.84525,301.3289,77.08056,286.8711 M,0,5462,5554,77.08056,286.8711,75.67027,271.9645
Sprite,Foreground,Centre,"highlight.png",82,194 C,0,5925,,232,13,46 F,2,5925,6295,1,0 S,2,5925,6295,0.9,0.18 P,0,5925,6295,A
Sprite,Foreground,Centre,"highlight.png",0,0 C,0,6666,,232,13,46 M,0,6666,6758,184,76,198.834,78.22511 F,2,6666,7406,1,0 S,2,6666,7406,0.9,0.18 P,0,6666,7406,A M,0,6758,6851,198.834,78.22511,213.6681,80.45021 M,0,6851,6943,213.6681,80.45021,228.5021,82.67532 M,0,6943,7036,228.5021,82.67532,243.3362,84.90043
Sprite,Foreground,Centre,"highlight.png",0,0 C,0,7406,,173,220,228 M,0,7406,7498,308,132,322.8285,129.738 F,2,7406,8516,1,0 S,2,7406,8516,0.9,0.18 P,0,7406,8516,A M,0,7498,7591,322.8285,129.738,337.657,127.4761 M,0,7591,7683,337.657,127.4761,352.4854,125.2141 M,0,7683,7776,352.4854,125.2141,367,123 M,0,7776,7868,367,123,352.4854,125.2141 M,0,7868,7961,352.4854,125.2141,337.657,127.4761 M,0,7961,8054,337.657,127.4761,322.8285,129.738 M,0,8054,8146,322.8285,129.738,308,132
Sprite,Foreground,Centre,"highlight.png",236,164 C,0,8518,,173,220,228 F,2,8518,8888,1,0 S,2,8518,8888,0.9,0.18 P,0,8518,8888,A
Sprite,Foreground,Centre,"highlight.png",0,0 C,0,8888,,173,220,228 M,0,8888,8980,164,196,149.1715,193.738 F,2,8888,9998,1,0 S,2,8888,9998,0.9,0.18 P,0,8888,9998,A M,0,8980,9073,149.1715,193.738,134.3431,191.4761 M,0,9073,9165,134.3431,191.4761,119.5146,189.2141 M,0,9165,9258,119.5146,189.2141,105,187 M,0,9258,9350,105,187,119.5146,189.2141 M,0,9350,9443,119.5146,189.2141,134.3431,191.4761 M,0,9443,9536,134.3431,191.4761,149.1715,193.738 M,0,9536,9628,149.1715,193.738,164,196
Sprite,Foreground,Centre,"highlight.png",0,0 C,0,9999,,196,98,0 M,0,9999,10091,228,244,242.8492,246.1213 F,2,9999,11109,1,0 S,2,9999,11109,0.9,0.18 P,0,9999,11109,A M,0,10091,10184,242.8492,246.1213,257.6985,248.2426 M,0,10184,10276,257.6985,248.2426,272.5477,250.364 M,0,10276,10369,272.5477,250.364,286.8319,250.0625 M,0,10369,10461,286.8319,250.0625,300.0843,243.0867 M,0,10461,10554,300.0843,243.0867,314.4645,238.9157 M,0,10554,10647,314.4645,238.9157,329.3932,237.7266 M,0,10647,10739,329.3932,237.7266,344.2981,239.2492
Sprite,Foreground,Centre,"highlight.png",332,316 C,0,11110,,196,98,0 F,2,11110,11480,1,0 S,2,11110,11480,0.9,0.18 P,0,11110,11480,A
Sprite,Foreground,Centre,"highlight.png",0,0 C,0,11851,,196,98,0 M,0,11851,11943,192,384,177.1158,382.1395 F,2,11851,12591,1,0 S,2,11851,12591,0.9,0.18 P,0,11851,12591,A M,0,11943,12036,177.1158,382.1395,162.2317,380.279 M,0,12036,12128,162.2317,380.279,147.3475,378.4184 M,0,12128,12221,147.3475,378.4184,132.4633,376.5579
Sprite,Foreground,Centre,"highlight.png",0,0 C,0,12592,,196,98,0 M,0,12592,12684,100,304,108.3205,291.5192 F,2,12592,13332,1,0 S,2,12592,13332,0.9,0.18 P,0,12592,13332,A M,0,12684,12777,108.3205,291.5192,116.641,279.0385 M,0,12777,12869,116.641,279.0385,124.9615,266.5577 M,0,12869,12962,124.9615,266.5577,133.282,254.077
Sprite,Foreground,Centre,"highlight.png",0,0 C,0,13332,,255,197,168 M,0,13332,13424,180,192,182.5346,177.2408 F,2,13332,14442,1,0 S,2,13332,14442,0.9,0.18 P,0,13332,14442,A M,0,13424,13517,182.5346,177.2408,183.5072,162.3143 M,0,13517,13609,183.5072,162.3143,182.6469,147.3785 M,0,13609,13702,182.6469,147.3785,179.9658,132.6564 M,0,13702,13794,179.9658,132.6564,175.5028,118.3679 M,0,13794,13887,175.5028,118.3679,169.3232,104.7269 M,0,13887,13980,169.3232,104.7269,161.5175,91.93791 M,0,13980,14072,161.5175,91.93791,152.1807,80.21191
Sprite,Foreground,Centre,"highlight.png",0,0 C,0,14814,,255,197,168 M,0,14814,14906,308,96,322.8842,97.86052 F,2,14814,15554,1,0 S,2,14814,15554,0.9,0.18 P,0,14814,15554,A M,0,14906,14999,322.8842,97.86052,337.7683,99.72104 M,0,14999,15091,337.7683,99.72104,352.6525,101.5816 M,0,15091,15184,352.6525,101.5816,367.5367,103.4421
Sprite,Foreground,Centre,"highlight.png",0,0 C,0,15555,,255,197,168 M,0,15555,15647,400,176,391.6795,188.4808 F,2,15555,16295,1,0 S,2,15555,16295,0.9,0.18 P,0,15555,16295,A M,0,15647,15740,391.6795,188.4808,383.359,200.9615 M,0,15740,15832,383.359,200.9615,375.0385,213.4423 M,0,15832,15925,375.0385,213.4423,366.718,225.923
Sprite,Foreground,Centre,"highlight.png",0,0 C,0,16295,,232,13,46 M,0,16295,16387,320,288,317.4654,302.7593 F,2,16295,17405,1,0 S,2,16295,17405,0.9,0.18 P,0,16295,17405,A M,0,16387,16480,317.4654,302.7593,316.4928,317.6857 M,0,16480,16572,316.4928,317.6857,317.3531,332.6215 M,0,16572,16665,317.3531,332.6215,320.0342,347.3436 M,0,16665,16757,320.0342,347.3436,324.4972,361.6321 M,0,16757,16850,324.4972,361.6321,330.6768,375.273 M,0,16850,16943,330.6768,375.273,338.4825,388.0621 M,0,16943,17035,338.4825,388.0621,347.8193,399.7881
Sprite,Foreground,Centre,"highlight.png",0,0 C,0,17406,,232,13,46 M,0,17406,17498,416,436,430.7668,438.4718 F,2,17406,18516,1,0 S,2,17406,18516,0.9,0.18 P,0,17406,18516,A M,0,17498,17591,430.7668,438.4718,445.6927,439.4278 M,0,17591,17683,445.6927,439.4278,460.635,438.5604 M,0,17683,17776,460.635,438.5604,475.377,435.8783 M,0,17776,17868,475.377,435.8783,489.5417,431.0295 M,0,17868,17961,489.5417,431.0295,503.114,424.7487 M,0,17961,18054,503.114,424.7487,515.8299,416.8582 M,0,18054,18146,515.8299,416.8582,527,408
Sprite,Foreground,Centre,"highlight.png",556,336 C,0,18518,,232,13,46 F,2,18518,18888,1,0 S,2,18518,18888,0.9,0.18 P,0,18518,18888,A
Sprite,Foreground,Centre,"highlight.png",536,260 C,0,18888,,232,13,46 F,2,18888,19258,1,0 S,2,18888,19258,0.9,0.18 P,0,18888,19258,A
Sprite,Foreground,Centre,"highlight.png",0,0 C,0,19258,,173,220,228 M,0,19258,19350,476,208,461.9029,213.0729 F,2,19258,20368,1,0 S,2,19258,20368,0.9,0.18 P,0,19258,20368,A M,0,19350,19443,461.9029,213.0729,447.4219,216.8661 M,0,19443,19535,447.4219,216.8661,432.6228,219.1317 M,0,19535,19628,432.6228,219.1317,417.6654,219.8446 M,0,19628,19720,417.6654,219.8446,402.7112,218.9965 M,0,19720,19813,402.7112,218.9965,387.9217,216.5954 M,0,19813,19906,387.9217,216.5954,373.457,212.6663 M,0,19906,19998,373.457,212.6663,359.4932,207.2095
Sprite,Foreground,Centre,"highlight.png",0,0 C,0,20369,,173,220,228 M,0,20369,20461,280,208,265.9029,213.0729 F,2,20369,22220,1,0 S,2,20369,22220,0.9,0.18 P,0,20369,22220,A M,0,20461,20554,265.9029,213.0729,251.4219,216.8661 M,0,20554,20646,251.4219,216.8661,236.6228,219.1317 M,0,20646,20739,236.6228,219.1317,221.6654,219.8446 M,0,20739,20831,221.6654,219.8446,206.7112,218.9965 M,0,20831,20924,206.7112,218.9965,191.9217,216.5954 M,0,20924,21017,191.9217,216.5954,177.457,212.6663 M,0,21017,21109,177.457,212.6663,163.4932,207.2095 M,0,21109,21202,163.4932,207.2095,177.457,212.6663 M,0,21202,21294,177.457,212.6663,191.9217,216.5954 M,0,21294,21387,191.9217,216.5954,206.7112,218.9965 M,0,21387,21480,206.7112,218.9965,221.6654,219.8446 M,0,21480,21572,221.6654,219.8446,236.6228,219.1317 M,0,21572,21665,236.6228,219.1317,251.4219,216.8661 M,0,21665,21757,251.4219,216.8661,265.9029,213.0729 M,0,21757,21850,265.9029,213.0729,280,208
Sprite,Foreground,Centre,"highlight.png",320,140 C,0,22221,,196,98,0 F,2,22221,22591,1,0 S,2,22221,22591,0.9,0.18 P,0,22221,22591,A
Sprite,Foreground,Centre,"highlight.png",320,296 C,0,22962,,196,98,0 F,2,22962,23332,1,0 S,2,22962,23332,0.9,0.18 P,0,22962,23332,A
Sprite,Foreground,Centre,"highlight.png",0,0 C,0,23703,,255,197,168 M,0,23703,23795,448,208,445.8176,193.1596 F,2,23703,24813,1,0 S,2,23703,24813,0.9,0.18 P,0,23703,24813,A M,0,23795,23888,445.8176,193.1596,443.6352,178.3192 M,0,23888,23980,443.6352,178.3192,441.4528,163.4788 M,0,23980,24073,441.4528,163.4788,439.2704,148.6385 M,0,24073,24165,439.2704,148.6385,437.088,133.7981 M,0,24165,24258,437.088,133.7981,434.9055,118.9577 M,0,24258,24351,434.9055,118.9577,432.7231,104.1173 M,0,24351,24443,432.7231,104.1173,430.5407,89.2769
Sprite,Foreground,Centre,"highlight.png",0,0 C,0,25184,,232,13,46 M,0,25184,25276,276,72,261.166,69.77489 F,2,25184,26294,1,0 S,2,25184,26294,0.9,0.18 P,0,25184,26294,A M,0,25276,25369,261.166,69.77489,246.3319,67.54979 M,0,25369,25461,246.3319,67.54979,231.4979,65.32468 M,0,25461,25554,231.4979,65.32468,216.6638,63.09957 M,0,25554,25646,216.6638,63.09957,231.4979,65.32468 M,0,25646,25739,231.4979,65.32468,246.3319,67.54979 M,0,25739,25832,246.3319,67.54979,261.166,69.77489 M,0,25832,25924,261.166,69.77489,276,72
Sprite,Foreground,Centre,"highlight.png",0,0 C,0,26295,,232,13,46 M,0,26295,26387,296,148,298.7169,162.7322 F,2,26295,27405,1,0 S,2,26295,27405,0.9,0.18 P,0,26295,27405,A M,0,26387,26480,298.7169,162.7322,300.0681,177.6383 M,0,26480,26572,300.0681,177.6383,299.8088,192.6059 M,0,26572,26665,299.8088,192.6059,297.9412,207.4626 M,0,26665,26757,297.9412,207.4626,294.4857,222.0372 M,0,26757,26850,294.4857,222.0372,289.4809,236.1618 M,0,26850,26943,289.4809,236.1618,282.7676,249.5529 M,0,26943,27035,282.7676,249.5529,274.8101,262.2281
Sprite,Foreground,Centre,"highlight.png",0,0 C,0,27406,,232,13,46 M,0,27406,27498,212,308,197.2041,305.534 F,2,27406,28146,1,0 S,2,27406,28146,0.9,0.18 P,0,27406,28146,A M,0,27498,27591,197.2041,305.534,182.4082,303.068 M,0,27591,27683,182.4082,303.068,167.6123,300.6021 M,0,27683,27776,167.6123,300.6021,152.8164,298.136
Sprite,Foreground,Centre,"highlight.png",76,312 C,0,28147,,232,13,46 F,2,28147,28517,1,0 S,2,28147,28517,0.9,0.18 P,0,28147,28517,A
Sprite,Foreground,Centre,"highlight.png",0,0 C,0,28518,,173,220,228 M,0,28518,28610,124,372,138.8086,374.3885 F,2,28518,29628,1,0 S,2,28518,29628,0.9,0.18 P,0,28518,29628,A M,0,28610,28703,138.8086,374.3885,153.6172,376.777 M,0,28703,28795,153.6172,376.777,168.4259,379.1655 M,0,28795,28888,168.4259,379.1655,183.2345,381.554 M,0,28888,28980,183.2345,381.554,198.0431,383.9424 M,0,28980,29073,198.0431,383.9424,212.8517,386.3309 M,0,29073,29166,212.8517,386.3309,227.6603,388.7194 M,0,29166,29258,227.6603,388.7194,242.4689,391.1079
Sprite,Foreground,Centre,"highlight.png",320,404 C,0,29629,,173,220,228 F,2,29629,29999,1,0 S,2,29629,29999,0.9,0.18 P,0,29629,29999,A
Sprite,Foreground,Centre,"highlight.png",0,0 C,0,30369,,173,220,228 M,0,30369,30461,456,332,453.7749,317.166 F,2,30369,31109,1,0 S,2,30369,31109,0.9,0.18 P,0,30369,31109,A M,0,30461,30554,453.7749,317.166,451.5498,302.3319 M,0,30554,30646,451.5498,302.3319,449.3247,287.4979 M,0,30646,30739,449.3247,287.4979,447.0996,272.6638
Sprite,Foreground,Centre,"highlight.png",0,0 C,0,31110,,196,98,0 M,0,31110,31202,508,224,521.9886,229.2926 F,2,31110,32220,1,0 S,2,31110,32220,0.9,0.18 P,0,31110,32220,A M,0,31202,31295,521.9886,229.2926,536.5042,232.8032 M,0,31295,31387,536.5042,232.8032,551.4042,234.1055 M,0,31387,31480,551.4042,234.1055,566.349,233.0753 M,0,31480,31572,566.349,233.0753,551.4042,234.1055 M,0,31572,31665,551.4042,234.1055,536.5042,232.8032 M,0,31665,31758,536.5042,232.8032,521.9886,229.2926 M,0,31758,31850,521.9886,229.2926,508,224
Sprite,Foreground,Centre,"highlight.png",436,192 C,0,32221,,196,98,0 F,2,32221,32591,1,0 S,2,32221,32591,0.9,0.18 P,0,32221,32591,A
Sprite,Foreground,Centre,"highlight.png",0,0 C,0,32592,,196,98,0 M,0,32592,32684,368,156,353.074,156.853 F,2,32592,33702,1,0 S,2,32592,33702,0.9,0.18 P,0,32592,33702,A M,0,32684,32777,353.074,156.853,338.1895,155.7419 M,0,32777,32869,338.1895,155.7419,323.6422,152.2785 M,0,32869,32962,323.6422,152.2785,309.859,146.4176 M,0,32962,33054,309.859,146.4176,323.6422,152.2785 M,0,33054,33147,323.6422,152.2785,338.1895,155.7419 M,0,33147,33240,338.1895,155.7419,353.074,156.853 M,0,33240,33332,353.074,156.853,368,156
Sprite,Foreground,Centre,"highlight.png",0,0 C,0,33703,,255,197,168 M,0,33703,33795,352,80,338.2027,74.25478 F,2,33703,34813,1,0 S,2,33703,34813,0.9,0.18 P,0,33703,34813,A M,0,33795,33888,338.2027,74.25478,323.7579,70.54096 M,0,33888,33980,323.7579,70.54096,308.8709,69.33681 M,0,33980,34073,308.8709,69.33681,293.9648,70.68687 M,0,34073,34165,293.9648,70.68687,279.6859,75.09619 M,0,34165,34258,279.6859,75.09619,266.2295,81.52048 M,0,34258,34351,266.2295,81.52048,254.0467,90.15083 M,0,34351,34443,254.0467,90.15083,244,100
Sprite,Foreground,Centre,"highlight.png",236,180 C,0,34814,,255,197,168 F,2,34814,35184,1,0 S,2,34814,35184,0.9,0.18 P,0,34814,35184,A
Sprite,Foreground,Centre,"highlight.png",0,0 C,0,35555,,255,197,168 M,0,35555,35647,84,204,82.13948,189.1158 F,2,35555,36295,1,0 S,2,35555,36295,0.9,0.18 P,0,35555,36295,A M,0,35647,35740,82.13948,189.1158,80.27896,174.2317 M,0,35740,35832,80.27896,174.2317,78.41843,159.3475 M,0,35832,35925,78.41843,159.3475,76.55791,144.4633
Sprite,Foreground,Centre,"highlight.png",0,0 C,0,36295,,255,197,168 M,0,36295,36387,152,132,153.8605,146.8842 F,2,36295,37035,1,0 S,2,36295,37035,0.9,0.18 P,0,36295,37035,A M,0,36387,36480,153.8605,146.8842,155.721,161.7683 M,0,36480,36572,155.721,161.7683,157.5816,176.6525 M,0,36572,36665,157.5816,176.6525,159.4421,191.5367
Sprite,Foreground,Centre,"highlight.png",0,0 C,0,37036,,232,13,46 M,0,37036,37128,136,264,148.0218,272.9271 F,2,37036,38146,1,0 S,2,37036,38146,0.9,0.18 P,0,37036,38146,A M,0,37128,37221,148.0218,272.9271,160.8586,280.6068 M,0,37221,37313,160.8586,280.6068,174.5248,286.7128 M,0,37313,37406,174.5248,286.7128,188.8328,291.1579 M,0,37406,37498,188.8328,291.1579,203.6217,293.4975 M,0,37498,37591,203.6217,293.4975,218.5562,294.3107 M,0,37591,37684,218.5562,294.3107,233.4896,293.3454 M,0,37684,37776,233.4896,293.3454,247,291
Sprite,Foreground,Centre,"highlight.png",0,0 C,0,38518,,232,13,46 M,0,38518,38610,404,316,405.8605,301.1158 F,2,38518,39258,1,0 S,2,38518,39258,0.9,0.18 P,0,38518,39258,A M,0,38610,38703,405.8605,301.1158,407.721,286.2317 M,0,38703,38795,407.721,286.2317,409.5816,271.3475 M,0,38795,38888,409.5816,271.3475,411.4421,256.4633
Sprite,Foreground,Centre,"highlight.png",0,0 C,0,39258,,232,13,46 M,0,39258,39350,336,244,334.1395,258.8842 F,2,39258,39998,1,0 S,2,39258,39998,0.9,0.18 P,0,39258,39998,A M,0,39350,39443,334.1395,258.8842,332.279,273.7683 M,0,39443,39535,332.279,273.7683,330.4184,288.6525 M,0,39535,39628,330.4184,288.6525,328.5579,303.5367
Sprite,Foreground,Centre,"highlight.png",0,0 C,0,39999,,173,220,228 M,0,39999,40091,352,376,339.9054,384.8298 F,2,39999,41109,1,0 S,2,39999,41109,0.9,0.18 P,0,39999,41109,A M,0,40091,40184,339.9054,384.8298,327.0267,392.4429 M,0,40184,40276,327.0267,392.4429,313.3443,398.5196 M,0,40276,40369,313.3443,398.5196,299.0358,402.9773 M,0,40369,40461,299.0358,402.9773,284.2491,405.3411 M,0,40461,40554,284.2491,405.3411,269.3169,406.2507 M,0,40554,40647,269.3169,406.2507,254.3698,405.4267 M,0,40647,40739,254.3698,405.4267,240,403
Sprite,Foreground,Centre,"highlight.png",0,0 C,0,41110,,173,220,228 M,0,41110,41202,184,348,181.1348,333.3031 F,2,41110,42220,1,0 S,2,41110,42220,0.9,0.18 P,0,41110,42220,A M,0,41202,41295,181.1348,333.3031,179.8783,318.4007 M,0,41295,41387,179.8783,318.4007,180.5139,303.4563 M,0,41387,41480,180.5139,303.4563,183.0324,288.7078 M,0,41480,41572,183.0324,288.7078,187.3951,274.3902 M,0,41572,41665,187.3951,274.3902,193.5339,260.7321 M,0,41665,41758,193.5339,260.7321,201.3531,247.9519 M,0,41758,41850,201.3531,247.9519,210.7572,236.2807
Sprite,Foreground,Centre,"highlight.png",280,196 C,0,42221,,173,220,228 F,2,42221,42591,1,0 S,2,42221,42591,0.9,0.18 P,0,42221,42591,A
Sprite,Foreground,Centre,"highlight.png",320,264 C,0,42592,,173,220,228 F,2,42592,42962,1,0 S,2,42592,42962,0.9,0.18 P,0,42592,42962,A
Sprite,Foreground,Centre,"highlight.png",360,196 C,0,42962,,196,98,0 F,2,42962,43332,1,0 S,2,42962,43332,0.9,0.18 P,0,42962,43332,A
Sprite,Foreground,Centre,"highlight.png",320,348 C,0,43703,,196,98,0 F,2,43703,44073,1,0 S,2,43703,44073,0.9,0.18 P,0,43703,44073,A
Sprite,Foreground,Centre,"highlight.png",0,0 C,0,44443,,196,98,0 M,0,44443,44535,280,196,281.2664,181.0732 F,2,44443,45924,1,0 S,2,44443,45924,0.9,0.18 P,0,44443,45924,A M,0,44535,44628,281.2664,181.0732,285.338,166.6648 M,0,44628,44720,285.338,166.6648,292.3727,153.4507 M,0,44720,44813,292.3727,153.4507,302.0185,141.997 M,0,44813,44905,302.0185,141.997,313.5948,132.4859 M,0,44905,44998,313.5948,132.4859,326.4566,124.7889 M,0,44998,45091,326.4566,124.7889,313.5948,132.4859 M,0,45091,45183,313.5948,132.4859,302.0185,141.997 M,0,45183,45276,302.0185,141.997,292.3727,153.4507 M,0,45276,45368,292.3727,153.4507,285.338,166.6648 M,0,45368,45461,285.338,166.6648,281.2664,181.0732 M,0,45461,45554,281.2664,181.0732,280,196
Sprite,Foreground,Centre,"highlight.png",0,0 C,0,45925,,255,197,168 M,0,45925,46017,280,276,279.5414,290.9857 F,2,45925,47035,1,0 S,2,45925,47035,0.9,0.18 P,0,45925,47035,A M,0,46017,46110,279.5414,290.9857,277.0186,305.7562 M,0,46110,46202,277.0186,305.7562,272.1207,319.9148 M,0,46202,46295,272.1207,319.9148,264.8926,333.0378 M,0,46295,46387,264.8926,333.0378,255.6249,344.8125 M,0,46387,46480,255.6249,344.8125,244.749,355.1256 M,0,46480,46573,244.749,355.1256,232.6853,364.0265 M,0,46573,46665,232.6853,364.0265,221,371
Sprite,Foreground,Centre,"highlight.png",132,248 C,0,47406,,255,197,168 F,2,47406,47776,1,0 S,2,47406,47776,0.9,0.18 P,0,47406,47776,A
Sprite,Foreground,Centre,"highlight.png",88,184 C,0,47783,,255,197,168 F,2,47783,48153,1,0 S,2,47783,48153,0.9,0.18 P,0,47783,48153,A
Sprite,Foreground,Centre,"highlight.png",0,0 C,0,48160,,255,197,168 M,0,48160,48260,148,136,162.7087,138.9417 F,2,48160,48930,1,0 S,2,48160,48930,0.9,0.18 P,0,48160,48930,A M,0,48260,48360,162.7087,138.9417,177.4174,141.8835 M,0,48360,48460,177.4174,141.8835,192.1261,144.8252 M,0,48460,48560,192.1261,144.8252,206.8348,147.767
Sprite,Foreground,Centre,"highlight.png",0,0 C,0,48960,,232,13,46 M,0,48960,49062,268,192,282.8164,189.6606 F,2,48960,49740,1,0 S,2,48960,49740,0.9,0.18 P,0,48960,49740,A M,0,49062,49165,282.8164,189.6606,297.6329,187.3211 M,0,49165,49268,297.6329,187.3211,312.4493,184.9817 M,0,49268,49370,312.4493,184.9817,327.2658,182.6422
Sprite,Foreground,Centre,"highlight.png",0,0 C,0,49781,,232,13,46 M,0,49781,49888,384,232,398.8285,234.262 F,2,49781,50579,1,0 S,2,49781,50579,0.9,0.18 P,0,49781,50579,A M,0,49888,49995,398.8285,234.262,413.657,236.5239 M,0,49995,50102,413.657,236.5239,428.4854,238.7859 M,0,50102,50209,428.4854,238.7859,443,241
Sprite,Foreground,Centre,"highlight.png",0,0 C,0,50677,,173,220,228 M,0,50677,50799,500,292,501.2827,306.8701 F,2,50677,51538,1,0 S,2,50677,51538,0.9,0.18 P,0,50677,51538,A M,0,50799,50922,501.2827,306.8701,500.0897,321.706 M,0,50922,51045,500.0897,321.706,495.9731,336.0419 M,0,51045,51168,495.9731,336.0419,489.0815,349.3249
Sprite,Foreground,Centre,"highlight.png",428,392 C,0,51694,,173,220,228 F,2,51694,52064,1,0 S,2,51694,52064,0.9,0.18 P,0,51694,52064,A
Sprite,Foreground,Centre,"highlight.png",0,0 C,0,52294,,196,98,0 M,0,52294,52384,320,320,316.362,305.4479 F,2,52294,53025,1,0 S,2,52294,53025,0.9,0.18 P,0,52294,53025,A M,0,52384,52474,316.362,305.4479,312.7239,290.8957 M,0,52474,52565,312.7239,290.8957,316.362,305.4479 M,0,52565,52655,316.362,305.4479,320,320
//Storyboard Sound Samples

[TimingPoints]
0,740.740740740741,4,2,1,30,1,0
1481,740.740740740741,4,2,1,40,1,0
47406,754.716981132075,4,2,1,40,1,0
48160,800,4,2,1,40,1,0
48960,821.917808219178,4,2,1,40,1,0
49781,857.142857142857,4,2,1,40,1,0
50209,937.5,4,2,1,40,1,0
50677,983.606557377049,4,2,1,40,1,0
51168,1052.63157894737,4,2,1,40,1,0
51694,1200,4,2,1,40,1,0
52294,722.89156626506,4,2,1,40,1,0

[Colours]
Combo1 : 173,220,228
Combo2 : 196,98,0
Combo3 : 255,197,168
Combo4 : 232,13,46

[HitObjects]
68,92,0,6,0,L|188:103,1,120,2|2,0:0|0:0,0:0:0:0:
344,112,1481,6,0,L|360:52,2,60,6|2|2,0:0|0:0|0:0,0:0:0:0:
292,168,2592,2,0,L|324:296,1,120,2|0,0:0|0:0,0:0:0:0:
260,332,3703,2,0,L|188:320,1,60,2|2,0:0|0:0,0:0:0:0:
148,264,4443,1,2,0:0:0:0:
80,304,4814,6,0,P|28:268|12:208,1,120,2|2,0:0|0:0,0:0:0:0:
18,138,5925,1,2,0:0:0:0:
120,20,6666,2,0,L|200:32,1,60,2|2,0:0|0:0,0:0:0:0:
244,76,7406,6,0,L|303:67,2,60,2|2|2,0:0|0:0|0:0,0:0:0:0:
172,108,8518,1,2,0:0:0:0:
100,140,8888,2,0,L|41:131,2,60,2|2|2,0:0|0:0|0:0,0:0:0:0:
164,188,9999,6,0,B|220:196|220:196|248:176|284:184,1,120,2|2,0:0|0:0,0:0:0:0:
268,260,11110,1,0,0:0:0:0:
128,328,11851,2,0,L|64:320,1,60,2|2,0:0|0:0,0:0:0:0:
36,248,12592,2,0,L|76:188,1,60,2|2,0:0|0:0,0:0:0:0:
116,136,13332,6,0,P|116:76|88:24,1,120,2|0,0:0|0:0,0:0:0:0:
244,40,14814,2,0,L|308:48,1,60,2|2,0:0|0:0,0:0:0:0:
336,120,15555,2,0,L|296:180,1,60,2|2,0:0|0:0,0:0:0:0:
256,232,16295,6,0,P|256:292|284:344,1,120,2|2,0:0|0:0,0:0:0:0:
352,380,17406,2,0,P|411:380|463:352,1,120,2|2,0:0|0:0,0:0:0:0:
492,280,18518,1,2,0:0:0:0:
472,204,18888,1,2,0:0:0:0:
412,152,19258,6,0,P|353:164|295:151,1,120,2|2,0:0|0:0,0:0:0:0:
216,152,20369,2,0,P|157:164|99:151,2,120,2|2|2,0:0|0:0|0:0,0:0:0:0:
256,84,22221,5,0,0:0:0:0:
256,240,22962,1,0,0:0:0:0:
384,152,23703,6,0,L|364:16,1,120,2|2,0:0|0:0,0:0:0:0:
212,16,25184,6,0,L|132:4,2,60,6|2|2,0:0|0:0|0:0,0:0:0:0:
232,92,26295,2,0,P|234:152|200:220,1,120,2|0,0:0|0:0,0:0:0:0:
148,252,27406,2,0,L|76:240,1,60,2|2,0:0|0:0,0:0:0:0:
12,256,28147,1,2,0:0:0:0:
60,316,28518,6,0,L|184:336,1,120,2|2,0:0|0:0,0:0:0:0:
256,348,29629,1,2,0:0:0:0:
392,276,30369,2,0,L|380:196,1,60,2|2,0:0|0:0,0:0:0:0:
444,168,31110,6,0,P|472:177|503:177,2,60,2|2|2,0:0|0:0|0:0,0:0:0:0:
372,136,32221,1,2,0:0:0:0:
304,100,32592,2,0,P|274:100|245:90,2,60,2|2|2,0:0|0:0|0:0,0:0:0:0:
288,24,33703,6,0,P|224:16|180:44,1,120,2|2,0:0|0:0,0:0:0:0:
172,124,34814,1,0,0:0:0:0:
20,148,35555,2,0,L|12:84,1,60,2|2,0:0|0:0,0:0:0:0:
88,76,36295,2,0,L|96:140,1,60,2|2,0:0|0:0,0:0:0:0:
72,208,37036,6,0,P|124:235|183:235,1,120,2|0,0:0|0:0,0:0:0:0:
340,260,38518,2,0,L|348:196,1,60,2|2,0:0|0:0,0:0:0:0:
272,188,39258,2,0,L|264:252,1,60,2|2,0:0|0:0,0:0:0:0:
288,320,39999,6,0,P|235:347|176:347,1,120,2|2,0:0|0:0,0:0:0:0:
120,292,41110,2,0,P|119:232|147:180,1,120,2|2,0:0|0:0,0:0:0:0:
216,140,42221,1,0,0:0:0:0:
256,208,42592,1,2,0:0:0:0:
296,140,42962,5,0,0:0:0:0:
256,292,43703,1,2,0:0:0:0:
216,140,44443,2,0,B|216:92|264:68|264:68|264:68,2,90,2|2|2,0:0|0:0|0:0,0:0:0:0:
216,220,45925,6,0,B|216:225|216:225|216:283|157:315,1,120,2|2,0:0|0:0,0:0:0:0:
68,192,47406,1,2,0:0:0:0:
24,128,47783,1,2,0:0:0:0:
84,80,48160,2,0,L|144:92,1,60,2|2,0:0|0:0,0:0:0:0:
204,136,48960,6,0,L|280:124,1,60,2|0,0:0|0:0,0:0:0:0:
320,176,49781,2,0,L|379:185,1,60,2|0,0:0|0:0,0:0:0:0:
436,236,50677,6,0,P|436:268|420:300,1,60,2|2,0:0|0:0,0:0:0:0:
364,336,51694,1,2,0:0:0:0:
256,264,52294,6,0,L|248:232,2,30,0|0|4,0:0|0:0|0:0,0:0:0:0:
