osu file format v14

[General]
AudioFilename: audio.mp3
AudioLeadIn: 0
PreviewTime: -1
Countdown: 1
SampleSet: None
StackLeniency: 0.7
Mode: 0
LetterboxInBreaks: 0
WidescreenStoryboard: 1

[Editor]
DistanceSpacing: 2
BeatDivisor: 4
GridSize: 16
TimelineZoom: 1

[Metadata]
Title:Nanairo Symphony (Music Box Remix)
TitleUnicode:Nanairo Symphony (Music Box Remix)
Artist:R3 Music Box
ArtistUnicode:R3 Music Box
Creator:Random Kid
Version:Normal
Source:
Tags:Music Box, Kousei, Your lie in april
BeatmapID:1374671
BeatmapSetID:648886

[Difficulty]
HPDrainRate:5
CircleSize:3
OverallDifficulty:5
ApproachRate:6
SliderMultiplier:1.4
SliderTickRate:1

[Events]
//Background and Video events
0,0,"im gonna cry 2.png",0,0
//Break Periods
2,37356,38730
2,50964,51720
//Storyboard Layer 0 (Background)
//Storyboard Layer 1 (Fail)
//Storyboard Layer 2 (Pass)
//Storyboard Layer 3 (Foreground)
//Storyboard Sound Samples

[TimingPoints]
1280,618.559999999999,4,3,0,25,1,0

[HitObjects]
208,256,42,6,0,L|176:144,2,105
272,336,1280,6,0,L|288:256,1,70
352,144,1898,2,0,L|336:240,1,70
368,352,2517,6,0,L|384:256,1,70
448,160,3135,2,0,L|432:256,1,70
384,320,3754,6,0,L|336:256,1,70
272,160,4372,1,0,0:0:0:0:
272,160,4682,1,0,0:0:0:0:
176,192,4991,5,0,0:0:0:0:
144,320,5300,1,0,0:0:0:0:
272,272,5609,1,0,0:0:0:0:
144,320,5919,1,0,0:0:0:0:
224,224,6228,6,0,L|272:160,1,70
368,48,6847,2,0,L|304:128,1,70
208,240,7465,6,0,L|272:160,1,70
384,32,8084,2,0,L|320:112,1,70
192,256,8702,6,0,L|256:176,1,70
304,112,9321,1,0,0:0:0:0:
235,201,9630,1,0,0:0:0:0:
160,320,9939,5,0,0:0:0:0:
288,288,10249,1,0,0:0:0:0:
144,224,10558,1,0,0:0:0:0:
288,288,10867,1,0,0:0:0:0:
400,320,11176,6,0,L|416:208,2,105
400,320,12414,2,0,L|304:256,2,105
480,352,13651,5,0,0:0:0:0:
464,240,13960,1,0,0:0:0:0:
400,160,14269,1,0,0:0:0:0:
304,96,14579,5,0,0:0:0:0:
288,112,14733,1,0,0:0:0:0:
272,128,14888,1,0,0:0:0:0:
272,240,15816,5,0,0:0:0:0:
272,240,16125,2,0,L|320:144,2,105
272,240,17362,2,0,L|176:160,2,105
368,288,18599,5,0,0:0:0:0:
448,208,18908,1,0,0:0:0:0:
416,96,19218,1,0,0:0:0:0:
304,48,19527,5,0,0:0:0:0:
288,64,19682,1,0,0:0:0:0:
272,80,19836,1,0,0:0:0:0:
160,272,21073,6,0,L|160:192,1,70
224,96,21692,2,0,L|224:192,1,70
288,272,22311,6,0,L|288:192,1,70
352,96,22929,2,0,L|352:176,1,70
352,288,23548,5,0,0:0:0:0:
240,240,23857,1,0,0:0:0:0:
304,176,24166,1,0,0:0:0:0:
272,320,24475,1,0,0:0:0:0:
368,112,24785,5,0,0:0:0:0:
352,224,25094,1,0,0:0:0:0:
272,160,25403,1,0,0:0:0:0:
448,160,25713,1,0,0:0:0:0:
304,336,26022,6,0,L|272:272,1,70
176,208,26640,2,0,L|208:288,1,70
144,320,27259,6,0,L|112:240,1,70
112,144,27878,2,0,L|160:80,1,70
256,64,28496,5,0,0:0:0:0:
208,144,28805,1,0,0:0:0:0:
304,144,29115,1,0,0:0:0:0:
432,144,29424,5,0,0:0:0:0:
368,224,29733,1,0,0:0:0:0:
304,144,30043,1,0,0:0:0:0:
240,48,30352,1,0,0:0:0:0:
304,144,30661,1,0,0:0:0:0:
352,256,30970,5,0,0:0:0:0:
208,208,31280,1,0,0:0:0:0:
352,192,31589,1,0,0:0:0:0:
224,272,31898,1,0,0:0:0:0:
304,144,32207,5,0,0:0:0:0:
272,320,32517,1,0,0:0:0:0:
256,64,32826,6,0,L|224:144,1,70
176,288,33445,6,0,L|240:256,1,70
336,352,34063,2,0,L|304:272,1,70
416,192,34682,2,0,L|336:224,1,70
256,128,35300,2,0,L|288:208,1,70
352,304,35919,6,0,L|400:240,2,70
272,352,36847,1,0,0:0:0:0:
272,352,37156,1,0,0:0:0:0:
208,128,39630,6,0,L|176:208,1,70
192,336,40249,2,0,L|224:256,1,70
320,160,40867,6,0,L|288:240,1,70
320,336,41486,1,0,0:0:0:0:
384,240,41795,1,0,0:0:0:0:
224,304,42104,5,0,0:0:0:0:
272,192,42414,1,0,0:0:0:0:
336,336,42723,5,0,0:0:0:0:
176,208,43032,1,0,0:0:0:0:
240,320,43342,6,0,L|272:256,1,70
272,112,43960,2,0,L|224:192,1,70
112,256,44579,2,0,L|128:160,1,70
192,64,45197,2,0,L|176:160,1,70
192,288,45816,6,0,L|256:256,2,70
96,336,46744,1,0,0:0:0:0:
160,192,47053,5,0,0:0:0:0:
240,176,47362,1,0,0:0:0:0:
320,192,47671,1,0,0:0:0:0:
384,240,47981,6,0,L|384:320,1,70
320,368,48599,2,0,L|320:288,1,70
256,240,49218,6,0,L|256:320,1,70
192,368,49836,2,0,L|192:288,1,70
192,160,50455,1,0,0:0:0:0:
288,288,50764,5,0,0:0:0:0:
320,256,52620,5,0,0:0:0:0:
128,144,53239,1,0,0:0:0:0:
400,160,53857,1,0,0:0:0:0:
160,272,54476,1,0,0:0:0:0:
240,64,55094,1,0,0:0:0:0:
256,288,55713,5,0,0:0:0:0:
256,192,55867,12,0,58496,0:0:0:0:
