osu file format v14

[General]
AudioFilename: audio.mp3
AudioLeadIn: 0
PreviewTime: -1
Countdown: 1
SampleSet: None
StackLeniency: 0.7
Mode: 0
LetterboxInBreaks: 0
WidescreenStoryboard: 1

[Editor]
DistanceSpacing: 2
BeatDivisor: 4
GridSize: 16
TimelineZoom: 1

[Metadata]
Title:Nanairo Symphony (Music Box Remix)
TitleUnicode:Nanairo Symphony (Music Box Remix)
Artist:R3 Music Box
ArtistUnicode:R3 Music Box
Creator:Random Kid
Version:Easy
Source:
Tags:Music Box, Kousei, Your lie in april
BeatmapID:1374670
BeatmapSetID:648886

[Difficulty]
HPDrainRate:5
CircleSize:2.5
OverallDifficulty:5
ApproachRate:5
SliderMultiplier:1.4
SliderTickRate:1

[Events]
//Background and Video events
0,0,"im gonna cry 2.png",0,0
//Break Periods
//Storyboard Layer 0 (Background)
//Storyboard Layer 1 (Fail)
//Storyboard Layer 2 (Pass)
//Storyboard Layer 3 (Foreground)
//Storyboard Sound Samples

[TimingPoints]
1280,618.559999999999,4,3,0,25,1,0

[HitObjects]
176,208,42,6,0,L|144:96,2,105
304,288,1280,5,0,0:0:0:0:
352,208,1898,1,0,0:0:0:0:
272,160,2517,1,0,0:0:0:0:
224,240,3135,1,0,0:0:0:0:
176,320,3754,6,0,L|128:256,2,70
192,336,4682,1,0,0:0:0:0:
320,304,6228,5,0,0:0:0:0:
240,240,6847,1,0,0:0:0:0:
304,160,7465,1,0,0:0:0:0:
384,224,8084,1,0,0:0:0:0:
416,320,8702,6,0,L|496:368,2,70
320,272,9630,1,0,0:0:0:0:
256,128,10867,5,0,0:0:0:0:
256,128,11176,2,0,L|256:256,2,105
256,128,12414,2,0,L|160:192,2,105
336,80,13651,1,0,0:0:0:0:
368,192,14579,6,0,L|400:224,2,35
224,144,15816,5,0,0:0:0:0:
224,144,16125,2,0,L|224:272,2,105
224,144,17362,2,0,L|128:224,2,105
304,96,18599,1,0,0:0:0:0:
320,208,19527,6,0,L|352:224,2,35
160,128,21073,5,0,0:0:0:0:
144,208,21692,1,0,0:0:0:0:
224,224,22311,1,0,0:0:0:0:
240,144,22929,1,0,0:0:0:0:
256,64,23548,2,0,P|320:16|320:16,2,70
272,144,24475,1,0,0:0:0:0:
256,320,26022,5,0,0:0:0:0:
192,256,26640,1,0,0:0:0:0:
256,192,27259,1,0,0:0:0:0:
320,256,27878,1,0,0:0:0:0:
384,304,28496,6,0,L|464:352,2,70
384,304,29424,2,0,L|464:272,2,70
304,336,30352,1,0,0:0:0:0:
224,304,30970,1,0,0:0:0:0:
288,240,32826,5,0,0:0:0:0:
176,64,33445,5,0,0:0:0:0:
176,192,34063,1,0,0:0:0:0:
288,112,34682,1,0,0:0:0:0:
288,224,35300,1,0,0:0:0:0:
384,240,35919,6,0,L|448:288,2,70
352,208,36847,1,0,0:0:0:0:
352,208,37156,1,0,0:0:0:0:
176,160,39630,5,0,0:0:0:0:
304,128,40249,1,0,0:0:0:0:
288,240,40867,1,0,0:0:0:0:
352,304,42723,5,0,0:0:0:0:
256,160,43342,5,0,0:0:0:0:
368,192,43960,1,0,0:0:0:0:
224,272,44579,1,0,0:0:0:0:
368,192,45197,1,0,0:0:0:0:
336,288,45816,2,0,L|336:368,2,70
288,176,46744,1,0,0:0:0:0:
432,256,47053,5,0,0:0:0:0:
416,176,47362,1,0,0:0:0:0:
368,112,47671,1,0,0:0:0:0:
288,96,47981,6,0,L|208:128,1,70
224,128,48599,2,0,L|160:160,1,70
160,160,49218,2,0,L|192:240,1,70
192,224,49836,2,0,L|224:304,1,70
304,336,50455,1,0,0:0:0:0:
320,224,50764,5,0,0:0:0:0:
256,112,52620,5,0,0:0:0:0:
464,192,53239,6,0,L|320:192,1,140
48,192,54476,2,0,L|208:192,1,140
256,192,55713,5,0,0:0:0:0:
256,192,55867,12,0,58496,0:0:0:0:
