osu file format v14

[General]
AudioFilename: audio.mp3
AudioLeadIn: 0
PreviewTime: -1
Countdown: 1
SampleSet: None
StackLeniency: 0.7
Mode: 0
LetterboxInBreaks: 0
WidescreenStoryboard: 0

[Editor]
DistanceSpacing: 2
BeatDivisor: 4
GridSize: 16
TimelineZoom: 1

[Metadata]
Title:Nanairo Symphony (Music Box Remix)
TitleUnicode:Nanairo Symphony (Music Box Remix)
Artist:R3 Music Box
ArtistUnicode:R3 Music Box
Creator:Random Kid
Version:Did it reach her?
Source:
Tags:Music Box, Kousei, Your lie in april
BeatmapID:1374669
BeatmapSetID:648886

[Difficulty]
HPDrainRate:6
CircleSize:4
OverallDifficulty:6
ApproachRate:7
SliderMultiplier:1.4
SliderTickRate:1

[Events]
//Background and Video events
0,0,"im gonna cry 2.png",0,0
//Break Periods
//Storyboard Layer 0 (Background)
//Storyboard Layer 1 (Fail)
//Storyboard Layer 2 (Pass)
//Storyboard Layer 3 (Foreground)
//Storyboard Sound Samples

[TimingPoints]
1280,618.559999999999,4,3,0,25,1,0

[HitObjects]
224,304,42,6,0,B|208:256|208:240|240:176,2,105
336,368,1280,6,0,P|352:320|352:272,1,70
288,128,1898,2,0,P|272:176|288:224,1,70
432,288,2517,6,0,P|448:240|448:192,1,70
384,48,3135,2,0,P|368:96|384:144,1,70
368,304,3754,5,0,0:0:0:0:
304,160,4063,1,0,0:0:0:0:
432,208,4372,1,0,0:0:0:0:
272,256,4682,1,0,0:0:0:0:
352,64,4991,5,0,0:0:0:0:
384,208,5300,1,0,0:0:0:0:
256,112,5609,1,0,0:0:0:0:
448,144,5919,1,0,0:0:0:0:
224,224,6228,6,0,P|240:288|256:304,1,70
336,144,6847,2,0,P|320:96|288:64,1,70
288,256,7465,6,0,P|304:320|320:336,1,70
400,176,8084,2,0,P|384:128|352:96,1,70
160,128,8702,5,0,0:0:0:0:
320,176,9011,1,0,0:0:0:0:
224,208,9321,5,0,0:0:0:0:
320,80,9630,1,0,0:0:0:0:
400,336,9939,5,0,0:0:0:0:
288,256,10249,1,0,0:0:0:0:
368,240,10558,1,0,0:0:0:0:
288,352,10867,5,0,0:0:0:0:
192,160,11176,2,0,P|208:96|240:64,2,105
288,288,12414,2,0,P|272:352|240:384,2,105
336,80,13651,5,0,0:0:0:0:
352,224,13960,1,0,0:0:0:0:
256,128,14269,1,0,0:0:0:0:
400,128,14579,5,0,0:0:0:0:
416,144,14733,1,0,0:0:0:0:
432,160,14888,1,0,0:0:0:0:
496,224,15197,1,0,0:0:0:0:
400,128,15506,1,0,0:0:0:0:
224,112,15816,5,0,0:0:0:0:
176,240,16125,2,0,B|208:288|208:304|192:352,2,105
96,128,17362,2,0,B|64:80|64:64|80:16,2,105
176,240,18599,5,0,0:0:0:0:
304,160,18908,1,0,0:0:0:0:
288,272,19218,1,0,0:0:0:0:
192,112,19527,5,0,0:0:0:0:
208,96,19682,1,0,0:0:0:0:
224,80,19836,1,0,0:0:0:0:
304,32,20146,1,0,0:0:0:0:
256,176,20455,1,0,0:0:0:0:
384,80,20764,1,0,0:0:0:0:
224,80,21073,6,0,P|192:128|192:160,1,70
288,320,21692,2,0,P|288:272|272:240,1,70
336,32,22311,6,0,P|304:80|304:112,1,70
400,272,22930,2,0,P|400:224|384:192,1,70
176,144,23548,5,0,0:0:0:0:
304,256,23857,1,0,0:0:0:0:
208,288,24166,1,0,0:0:0:0:
272,112,24475,1,0,0:0:0:0:
384,336,24785,5,0,0:0:0:0:
400,224,25094,1,0,0:0:0:0:
304,272,25403,1,0,0:0:0:0:
464,288,25713,1,0,0:0:0:0:
432,144,26022,6,0,P|416:96|384:80,1,70
160,32,26640,2,0,P|176:80|208:96,1,70
384,320,27259,6,0,P|336:288|336:256,1,70
128,160,27877,2,0,P|144:208|176:224,1,70
304,320,28496,5,0,0:0:0:0:
368,192,28805,1,0,0:0:0:0:
448,320,29115,1,0,0:0:0:0:
288,240,29424,5,0,0:0:0:0:
208,96,29733,1,0,0:0:0:0:
384,112,30043,1,0,0:0:0:0:
144,256,30352,5,0,0:0:0:0:
176,48,30661,1,0,0:0:0:0:
320,208,30970,5,0,0:0:0:0:
192,144,31280,1,0,0:0:0:0:
272,144,31589,5,0,0:0:0:0:
136,189,31899,1,0,0:0:0:0:
192,144,32207,5,0,0:0:0:0:
91,245,32517,1,0,0:0:0:0:
136,189,32826,6,0,P|160:234|152:278,1,70
128,336,33445,6,0,L|192:288,1,70
320,80,34063,2,0,L|256:128,1,70
80,256,34682,6,0,L|144:208,1,70
272,0,35300,2,0,L|208:48,1,70
112,208,35919,5,0,0:0:0:0:
304,176,36228,1,0,0:0:0:0:
208,272,36537,1,0,0:0:0:0:
208,112,36847,1,0,0:0:0:0:
272,320,37156,5,0,0:0:0:0:
352,176,37465,1,0,0:0:0:0:
368,288,37775,1,0,0:0:0:0:
240,224,38084,1,0,0:0:0:0:
432,336,38393,5,0,0:0:0:0:
352,176,38702,1,0,0:0:0:0:
448,240,39012,1,0,0:0:0:0:
240,192,39321,1,0,0:0:0:0:
304,320,39630,6,0,P|320:272|320:224,1,70
240,80,40249,2,0,P|224:128|224:160,1,70
304,320,40867,5,0,0:0:0:0:
320,160,41177,1,0,0:0:0:0:
368,272,41486,1,0,0:0:0:0:
240,144,41795,1,0,0:0:0:0:
432,336,42104,5,0,0:0:0:0:
352,160,42414,1,0,0:0:0:0:
320,384,42723,2,0,P|288:336|288:304,1,70
224,64,43342,6,0,L|256:144,1,70
320,336,43960,2,0,L|288:240,1,70
144,112,44579,6,0,L|224:160,1,70
400,256,45197,2,0,L|368:176,1,70
304,32,45816,5,0,0:0:0:0:
224,160,46125,1,0,0:0:0:0:
352,112,46434,1,0,0:0:0:0:
160,48,46744,1,0,0:0:0:0:
304,176,47053,5,0,0:0:0:0:
384,208,47362,1,0,0:0:0:0:
432,272,47671,1,0,0:0:0:0:
448,352,47981,6,0,P|384:368|368:352,1,70
160,256,48599,2,0,P|192:240|240:240,1,70
352,288,49218,6,0,P|288:304|272:288,1,70
64,192,49836,2,0,P|96:176|144:176,1,70
320,160,50455,1,0,0:0:0:0:
224,48,50764,6,0,P|208:96|224:144,1,70
240,208,51383,1,0,0:0:0:0:
288,288,51692,1,0,0:0:0:0:
384,144,52311,5,0,0:0:0:0:
304,32,52620,2,0,P|288:80|304:112,1,70
336,288,53239,5,0,0:0:0:0:
128,128,53548,1,0,0:0:0:0:
256,336,53857,5,0,0:0:0:0:
208,80,54166,1,0,0:0:0:0:
160,304,54476,5,0,0:0:0:0:
304,80,54785,1,0,0:0:0:0:
128,224,55094,6,0,P|160:192|208:192,1,70
256,192,55713,5,0,0:0:0:0:
256,192,55945,12,0,58496,0:0:0:0:
