osu file format v14

[General]
AudioFilename: audio.mp3
AudioLeadIn: 0
PreviewTime: 66893
Countdown: 0
SampleSet: Soft
StackLeniency: 0.7
Mode: 3
LetterboxInBreaks: 0
SpecialStyle: 0
WidescreenStoryboard: 1

[Editor]
DistanceSpacing: 1
BeatDivisor: 4
GridSize: 8
TimelineZoom: 0.5

[Metadata]
Title:My Confession
TitleUnicode:My Confession
Artist:R3 Music Box
ArtistUnicode:R3 Music Box
Creator:Matthewwwwww
Version:Catty's 7K Easy
Source:Doki Doki Literature Club!
Tags:ddlc team salvato dan yuri ost cover soundtrack visual novel [SICK]Catcat video game instrumental
BeatmapID:2832658
BeatmapSetID:1173757

[Difficulty]
HPDrainRate:6.5
CircleSize:7
OverallDifficulty:6
ApproachRate:5
SliderMultiplier:1.4
SliderTickRate:1

[Events]
//Background and Video events
0,0,"My Confession.jpg",0,0
//Break Periods
//Storyboard Layer 0 (Background)
//Storyboard Layer 1 (Fail)
//Storyboard Layer 2 (Pass)
//Storyboard Layer 3 (Foreground)
//Storyboard Layer 4 (Overlay)
//Storyboard Sound Samples

[TimingPoints]
58,759.493670886076,4,2,1,40,1,0
88159,769.230769230769,4,2,1,40,1,0
88159,-99.009900990099,4,2,1,40,0,0
88543,779.220779220779,4,2,1,40,1,0
88543,-97.0873786407767,4,2,1,40,0,0
88932,789.473684210526,4,2,1,40,1,0
88932,-96.1538461538461,4,2,1,40,0,0
89326,800,4,2,1,40,1,0
89326,-95.2380952380952,4,2,1,40,0,0
89726,800,4,2,1,40,1,0
89726,-95.2380952380952,4,2,1,40,0,0
90926,923.076923076923,4,2,1,40,1,0
90926,-81.9672131147541,4,2,1,40,0,0
91387,967.741935483871,4,2,1,20,1,0
91387,-78.740157480315,4,2,1,20,0,0
91870,983.606557377049,4,2,1,20,1,0
91870,-76.9230769230769,4,2,1,20,0,0
92361,1111.11111111111,4,2,1,10,1,0
92361,-68.4931506849315,4,2,1,10,0,0
92916,1176.47058823529,4,2,1,10,1,0
92916,-64.5161290322581,4,2,1,10,0,0

[HitObjects]
182,192,58,5,0,0:0:0:0:
256,192,437,1,0,0:0:0:0:
329,192,817,1,0,0:0:0:0:
402,192,1197,1,0,0:0:0:0:
36,192,3095,1,0,0:0:0:0:
109,192,3475,1,0,0:0:0:0:
182,192,3855,1,0,0:0:0:0:
256,192,4235,1,0,0:0:0:0:
182,192,6133,1,0,0:0:0:0:
256,192,6513,1,0,0:0:0:0:
329,192,6893,1,0,0:0:0:0:
402,192,7273,1,0,0:0:0:0:
28,192,9171,1,0,0:0:0:0:
109,192,9551,1,0,0:0:0:0:
182,192,9931,1,0,0:0:0:0:
256,192,10311,1,0,0:0:0:0:
36,192,12209,1,8,0:0:0:26:
475,192,12209,1,8,0:0:0:40:LR_NBell_B5.wav
182,192,12589,1,0,0:0:0:0:
256,192,12969,1,0,0:0:0:0:
329,192,13349,1,0,0:0:0:0:
475,192,14868,1,8,0:0:0:40:LR_NBell_C6.wav
36,192,15247,1,8,0:0:0:40:LR_NBell_B5.wav
402,192,15247,1,0,0:0:0:0:
109,192,15627,1,0,0:0:0:0:
182,192,16007,1,8,0:0:0:40:LR_NBell_A5.wav
256,192,16387,1,0,0:0:0:0:
329,192,17526,1,8,0:0:0:40:LR_NBell_G5.wav
182,192,17906,1,8,0:0:0:40:LR_NBell_F5.wav
36,192,18285,1,8,0:0:0:40:LR_NBell_E5.wav
475,192,18285,1,0,0:0:0:0:
182,192,18665,1,0,0:0:0:0:
256,192,19045,1,0,0:0:0:0:
329,192,19425,1,0,0:0:0:0:
329,192,20944,1,8,0:0:0:40:LR_NBell_D5.wav
36,192,21323,1,8,0:0:0:40:LR_NBell_C5.wav
475,192,21323,1,0,0:0:0:0:
109,192,21703,1,0,0:0:0:0:
182,192,22083,1,0,0:0:0:0:
256,192,22463,1,0,0:0:0:0:
36,192,24361,1,8,0:0:0:40:LR_NBell_B5.wav
475,192,24361,1,8,0:0:0:40:LR_NBell_G5.wav
329,192,24741,1,0,0:0:0:0:
256,192,25121,1,0,0:0:0:0:
182,192,25501,1,0,0:0:0:0:
256,192,27020,1,8,0:0:0:70:LR_NBell_C6.wav
36,192,27399,1,0,0:0:0:40:LR_NBell_B5.wav
475,192,27399,1,8,0:0:0:40:LR_NBell_G5.wav
402,192,27779,1,0,0:0:0:0:
329,192,28159,1,8,0:0:0:40:LR_NBell_F5.wav
256,192,28539,1,0,0:0:0:0:
109,192,29678,1,8,0:0:0:40:LR_NBell_G5.wav
256,192,30058,1,8,0:0:0:40:LR_NBell_F5.wav
36,192,30437,1,8,0:0:0:40:LR_NBell_E5.wav
475,192,30437,1,0,0:0:0:0:
182,192,30817,1,0,0:0:0:0:
256,192,31197,1,0,0:0:0:0:
329,192,31576,1,0,0:0:0:0:
475,192,32716,1,8,0:0:0:40:LR_NBell_G6.wav
402,192,33095,1,8,0:0:0:40:LR_NBell_F6.wav
36,192,33475,1,8,0:0:0:40:LR_NBell_E6.wav
329,192,33475,1,0,0:0:0:0:
109,192,33855,1,0,0:0:0:0:
182,192,34235,1,0,0:0:0:0:
256,192,34614,1,8,0:0:0:26:
475,192,34614,1,8,0:0:0:70:LR_NBell_D6.wav
182,192,35754,1,8,0:0:0:26:
402,192,35754,1,8,0:0:0:70:LR_NBell_C6.wav
36,192,36513,1,8,0:0:0:40:LR_NBell_B5.wav
475,192,36513,1,0,0:0:0:0:
182,192,36893,1,0,0:0:0:0:
329,192,37273,1,8,0:0:0:40:LR_NBell_D6.wav
329,192,37652,1,8,0:0:0:40:LR_NBell_D6.wav
36,192,39551,1,0,0:0:0:0:
109,192,39931,1,8,0:0:0:26:
475,192,39931,1,8,0:0:0:70:LR_NBell_B5.wav
182,192,40311,1,8,0:0:0:40:LR_NBell_D6.wav
256,192,40690,1,8,0:0:0:26:
402,192,40690,1,8,0:0:0:40:LR_NBell_A5.wav
36,192,41830,1,8,0:0:0:40:LR_NBell_G5.wav
329,192,42209,1,8,0:0:0:40:LR_NBell_A5.wav
36,192,42589,1,8,0:0:0:40:LR_NBell_B5.wav
475,192,42589,1,0,0:0:0:0:
109,192,42969,1,8,0:0:0:40:LR_NBell_G5.wav
256,192,43349,1,8,0:0:0:40:LR_NBell_D5.wav
402,192,43728,1,0,0:0:0:0:
36,192,45627,1,0,0:0:0:0:
109,192,46007,1,0,0:0:0:0:
182,192,46387,1,0,0:0:0:0:
256,192,46766,1,0,0:0:0:0:
109,192,48665,1,8,0:0:0:40:LR_NBell_B5.wav
475,192,48665,1,0,0:0:0:0:
256,192,49045,1,0,0:0:0:0:
402,192,49425,1,8,0:0:0:40:LR_NBell_D6.wav
402,192,49804,1,8,0:0:0:40:LR_NBell_D6.wav
36,192,51703,1,0,0:0:0:0:
109,192,52083,1,8,0:0:0:26:
475,192,52083,1,8,0:0:0:40:LR_NBell_B5.wav
182,192,52463,1,8,0:0:0:40:LR_NBell_D6.wav
256,192,52842,1,8,0:0:0:26:
402,192,52842,1,8,0:0:0:40:LR_NBell_A5.wav
109,192,53982,1,8,0:0:0:40:LR_NBell_G5.wav
256,192,54361,1,8,0:0:0:40:LR_NBell_A5.wav
28,192,54741,128,8,56640:0:0:0:40:LR_NBell_A#5.wav
475,192,54741,128,0,56640:0:0:0:0:
182,192,56640,1,8,0:0:0:40:LR_NBell_A#5.wav
329,192,57020,1,8,0:0:0:40:LR_NBell_C6.wav
182,192,57399,1,8,0:0:0:40:LR_NBell_A#5.wav
109,192,57779,128,8,60058:0:0:0:40:LR_NBell_A5.wav
369,192,57779,128,0,60058:0:0:0:0:
256,192,60058,1,8,0:0:0:40:LR_NBell_A5.wav
256,192,60817,128,8,61956:0:0:0:40:LR_NBell_G5.wav
475,192,60817,128,0,63095:0:0:0:0:
182,192,61956,128,0,63095:0:0:0:40:LR_NBell_F5.wav
109,192,63095,1,8,0:0:0:40:LR_NBell_D5.wav
36,192,63855,128,8,66133:0:0:0:40:LR_NBell_A5.wav
329,192,63855,128,0,64994:0:0:0:0:
256,192,64994,128,8,66133:0:0:0:40:LR_NBell_F5.wav
329,192,66133,1,8,0:0:0:40:LR_NBell_A5.wav
36,192,66893,1,8,0:0:0:26:
402,192,66893,1,8,0:0:0:40:LR_NBell_B5.wav
182,192,67273,1,8,0:0:0:40:LR_NBell_G5.wav
402,192,67652,1,8,0:0:0:40:LR_NBell_B5.wav
182,192,68032,1,8,0:0:0:40:LR_NBell_G5.wav
402,192,68412,1,8,0:0:0:40:LR_NBell_B5.wav
182,192,68792,1,8,0:0:0:40:LR_NBell_G5.wav
483,192,69171,1,8,0:0:0:40:LR_NBell_C6.wav
182,192,69551,1,8,0:0:0:40:LR_NBell_G5.wav
329,192,69931,1,8,0:0:0:26:LR_NBell_A5.wav
109,192,70311,1,0,0:0:0:40:LR_NBell_F5.wav
256,192,70690,1,0,0:0:0:40:LR_NBell_C6.wav
402,192,71070,1,0,0:0:0:40:LR_NBell_G6.wav
36,192,71450,1,8,0:0:0:40:LR_NBell_C5.wav
109,192,71830,1,8,0:0:0:40:LR_NBell_F5.wav
182,192,72209,1,8,0:0:0:40:LR_NBell_A5.wav
256,192,72589,1,8,0:0:0:40:LR_NBell_B5.wav
36,192,72969,1,8,0:0:0:40:LR_NBell_B5.wav
402,192,72969,1,0,0:0:0:0:
182,192,73349,1,8,0:0:0:40:LR_NBell_G5.wav
402,192,73728,1,8,0:0:0:40:LR_NBell_B5.wav
182,192,74108,1,8,0:0:0:40:LR_NBell_G5.wav
402,192,74488,1,8,0:0:0:40:LR_NBell_B5.wav
182,192,74868,1,8,0:0:0:40:LR_NBell_G5.wav
483,192,75247,1,8,0:0:0:70:LR_NBell_C6.wav
182,192,75627,1,8,0:0:0:40:LR_NBell_G5.wav
329,192,76007,1,8,0:0:0:26:LR_NBell_A5.wav
109,192,76387,1,0,0:0:0:40:LR_NBell_F5.wav
256,192,76766,1,0,0:0:0:40:LR_NBell_C6.wav
402,192,77146,1,0,0:0:0:40:LR_NBell_G6.wav
36,192,77526,1,8,0:0:0:40:LR_NBell_C5.wav
109,192,77906,1,8,0:0:0:40:LR_NBell_F5.wav
182,192,78285,1,8,0:0:0:40:LR_NBell_A5.wav
256,192,78665,1,8,0:0:0:40:LR_NBell_B5.wav
109,192,79045,1,8,0:0:0:26:
475,192,79045,1,8,0:0:0:40:LR_NBell_B5.wav
329,192,79425,1,8,0:0:0:40:LR_NBell_G5.wav
109,192,79804,1,8,0:0:0:40:LR_NBell_B5.wav
329,192,80184,1,8,0:0:0:40:LR_NBell_G5.wav
109,192,80564,1,8,0:0:0:40:LR_NBell_B5.wav
329,192,80944,1,8,0:0:0:40:LR_NBell_G5.wav
36,192,81323,1,8,0:0:0:53:LR_NBell_C6.wav
329,192,81703,1,8,0:0:0:40:LR_NBell_G5.wav
182,192,82083,1,8,0:0:0:40:LR_NBell_A5.wav
109,192,82463,1,0,0:0:0:40:LR_NBell_F5.wav
256,192,82842,1,0,0:0:0:40:LR_NBell_C6.wav
402,192,83222,1,0,0:0:0:40:LR_NBell_G6.wav
36,192,83602,1,8,0:0:0:40:LR_NBell_C5.wav
109,192,83982,1,8,0:0:0:40:LR_NBell_F5.wav
182,192,84361,1,8,0:0:0:40:LR_NBell_A5.wav
256,192,84741,1,8,0:0:0:40:LR_NBell_B5.wav
109,192,85121,1,8,0:0:0:40:LR_NBell_B5.wav
475,192,85121,1,0,0:0:0:0:
329,192,85501,1,8,0:0:0:40:LR_NBell_G5.wav
109,192,85880,1,8,0:0:0:40:LR_NBell_B5.wav
329,192,86260,1,8,0:0:0:40:LR_NBell_G5.wav
109,192,86640,1,8,0:0:0:40:LR_NBell_B5.wav
329,192,87020,1,8,0:0:0:40:LR_NBell_G5.wav
36,192,87399,1,8,0:0:0:40:LR_NBell_C6.wav
329,192,87779,1,8,0:0:0:40:LR_NBell_G5.wav
182,192,88159,1,8,0:0:0:40:LR_NBell_A5.wav
109,192,88543,1,0,0:0:0:40:LR_NBell_F5.wav
256,192,88932,1,0,0:0:0:40:LR_NBell_C6.wav
402,192,89326,1,0,0:0:0:40:LR_NBell_G6.wav
36,192,89726,1,8,0:0:0:40:LR_NBell_C5.wav
109,192,90126,1,8,0:0:0:40:LR_NBell_F5.wav
182,192,90526,1,8,0:0:0:40:LR_NBell_A5.wav
256,192,90926,1,8,0:0:0:40:LR_NBell_B5.wav
182,192,91387,1,0,0:0:0:0:
256,192,91870,1,0,0:0:0:0:
329,192,92361,1,0,0:0:0:0:
402,192,92916,1,0,0:0:0:0:
