osu file format v14

[General]
AudioFilename: audio.mp3
AudioLeadIn: 0
PreviewTime: 66893
Countdown: 0
SampleSet: Soft
StackLeniency: 0.7
Mode: 3
LetterboxInBreaks: 0
SpecialStyle: 0
WidescreenStoryboard: 1

[Editor]
DistanceSpacing: 1
BeatDivisor: 4
GridSize: 8
TimelineZoom: 0.4999999

[Metadata]
Title:My Confession
TitleUnicode:My Confession
Artist:R3 Music Box
ArtistUnicode:R3 Music Box
Creator:Matthewwwwww
Version:9K My Heart Pounds
Source:Doki Doki Literature Club!
Tags:ddlc team salvato dan yuri ost cover soundtrack visual novel [SICK]Catcat video game instrumental
BeatmapID:2832659
BeatmapSetID:1173757

[Difficulty]
HPDrainRate:7
CircleSize:9
OverallDifficulty:7
ApproachRate:5
SliderMultiplier:1.4
SliderTickRate:1

[Events]
//Background and Video events
0,0,"My Confession.jpg",0,0
//Break Periods
//Storyboard Layer 0 (Background)
//Storyboard Layer 1 (Fail)
//Storyboard Layer 2 (Pass)
//Storyboard Layer 3 (Foreground)
//Storyboard Layer 4 (Overlay)
//Storyboard Sound Samples

[TimingPoints]
58,759.493670886076,4,2,1,40,1,0
88159,769.230769230769,4,2,1,40,1,0
88159,-99.009900990099,4,2,1,40,0,0
88543,779.220779220779,4,2,1,40,1,0
88543,-97.0873786407767,4,2,1,40,0,0
88932,789.473684210526,4,2,1,40,1,0
88932,-96.1538461538461,4,2,1,40,0,0
89326,800,4,2,1,40,1,0
89326,-95.2380952380952,4,2,1,40,0,0
89726,800,4,2,1,40,1,0
89726,-95.2380952380952,4,2,1,40,0,0
90926,923.076923076923,4,2,1,40,1,0
90926,-81.9672131147541,4,2,1,40,0,0
91387,967.741935483871,4,2,1,20,1,0
91387,-78.740157480315,4,2,1,20,0,0
91870,983.606557377049,4,2,1,20,1,0
91870,-76.9230769230769,4,2,1,20,0,0
92361,1111.11111111111,4,2,1,10,1,0
92361,-68.4931506849315,4,2,1,10,0,0
92916,1176.47058823529,4,2,1,10,1,0
92916,-64.5161290322581,4,2,1,10,0,0

[HitObjects]
28,192,58,5,0,0:0:0:53:
85,192,437,1,0,0:0:0:53:
142,192,817,1,0,0:0:0:53:
256,192,1197,128,0,3095:0:0:0:0:
28,192,3095,1,0,0:0:0:53:
85,192,3475,1,0,0:0:0:53:
142,192,3855,1,0,0:0:0:53:
199,192,4235,128,0,6133:0:0:0:0:
28,192,6133,1,0,0:0:0:53:
85,192,6513,1,0,0:0:0:53:
142,192,6893,1,0,0:0:0:53:
256,192,7273,128,0,9171:0:0:0:0:
28,192,9171,1,0,0:0:0:53:
85,192,9551,1,0,0:0:0:53:
142,192,9931,1,0,0:0:0:53:
199,192,10311,128,0,12209:0:0:0:0:
426,192,12209,128,8,13349:0:0:0:40:LR_NBell_B5.wav
28,192,12209,1,8,0:0:0:26:
85,192,12589,1,0,0:0:0:53:
142,192,12969,1,0,0:0:0:53:
256,192,13349,128,0,14868:0:0:0:53:
483,192,14868,1,8,0:0:0:40:LR_NBell_C6.wav
426,192,15247,1,8,0:0:0:40:LR_NBell_B5.wav
28,192,15247,1,0,0:0:0:26:
85,192,15627,1,0,0:0:0:53:
369,192,16007,1,8,0:0:0:40:LR_NBell_A5.wav
142,192,16007,1,0,0:0:0:26:
199,192,16387,128,0,17526:0:0:0:0:
426,192,17526,1,8,0:0:0:40:LR_NBell_G5.wav
369,192,17906,1,8,0:0:0:40:LR_NBell_F5.wav
28,192,18285,1,8,0:0:0:40:LR_NBell_E5.wav
312,192,18285,128,0,19425:0:0:0:26:
85,192,18665,1,0,0:0:0:53:
142,192,19045,1,0,0:0:0:53:
256,192,19425,128,0,20944:0:0:0:0:
369,192,20944,1,8,0:0:0:40:LR_NBell_D5.wav
28,192,21323,1,8,0:0:0:40:LR_NBell_C5.wav
312,192,21323,128,0,22463:0:0:0:26:
85,192,21703,1,0,0:0:0:53:
142,192,22083,1,0,0:0:0:53:
199,192,22463,128,0,24361:0:0:0:0:
28,192,24361,1,8,0:0:0:40:LR_NBell_B5.wav
312,192,24361,128,8,25501:0:0:0:40:LR_NBell_G5.wav
426,192,24361,128,0,25501:0:0:0:17:
85,192,24741,1,0,0:0:0:53:
142,192,25121,1,0,0:0:0:53:
256,192,25501,128,0,27020:0:0:0:0:
369,192,27020,1,8,0:0:0:70:LR_NBell_C6.wav
483,192,27020,1,0,0:0:0:70:LR_NBell_G5.wav
426,192,27399,128,8,28159:0:0:0:40:LR_NBell_G5.wav
312,192,27399,128,0,28159:0:0:0:40:LR_NBell_B5.wav
85,192,27399,1,0,0:0:0:17:
199,192,27779,1,0,0:0:0:53:
256,192,28159,128,8,29298:0:0:0:40:LR_NBell_F5.wav
369,192,28159,128,8,29298:0:0:0:40:LR_NBell_A5.wav
28,192,28159,1,0,0:0:0:17:
142,192,28539,1,0,0:0:0:53:
312,192,29678,1,8,0:0:0:40:LR_NBell_G5.wav
256,192,30058,1,8,0:0:0:40:LR_NBell_F5.wav
199,192,30437,1,8,0:0:0:40:LR_NBell_E5.wav
28,192,30437,1,0,0:0:0:26:
85,192,30817,1,0,0:0:0:53:
199,192,31197,1,0,0:0:0:53:
256,192,31576,1,0,0:0:0:53:
483,192,32716,1,8,0:0:0:40:LR_NBell_G6.wav
426,192,33095,1,8,0:0:0:40:LR_NBell_F6.wav
256,192,33475,128,8,34614:0:0:0:40:LR_NBell_E6.wav
369,192,33475,128,0,34614:0:0:0:26:
28,192,33475,1,0,0:0:0:0:
85,192,33855,1,0,0:0:0:53:
142,192,34235,1,0,0:0:0:53:
199,192,34614,128,8,35754:0:0:0:70:LR_NBell_D6.wav
312,192,34614,128,8,35754:0:0:0:26:
256,192,35754,128,8,36513:0:0:0:70:LR_NBell_C6.wav
142,192,35754,128,8,36513:0:0:0:26:
199,192,36513,1,8,0:0:0:40:LR_NBell_B5.wav
28,192,36513,1,0,0:0:0:26:
369,192,36513,1,0,0:0:0:0:
85,192,36893,1,0,0:0:0:53:
426,192,37273,1,8,0:0:0:40:LR_NBell_D6.wav
199,192,37273,1,8,0:0:0:26:
426,192,37652,128,8,39551:0:0:0:40:LR_NBell_D6.wav
256,192,37652,128,8,39551:0:0:0:26:
199,192,39551,1,0,0:0:0:53:
28,192,39551,1,0,0:0:0:0:
312,192,39931,1,8,0:0:0:70:LR_NBell_B5.wav
85,192,39931,1,8,0:0:0:26:
369,192,40121,1,8,0:0:0:53:LR_NBell_C6.wav
426,192,40311,1,8,0:0:0:40:LR_NBell_D6.wav
142,192,40311,1,8,0:0:0:26:
199,192,40690,128,8,41830:0:0:0:40:LR_NBell_A5.wav
312,192,40690,128,8,41830:0:0:0:26:
256,192,41830,1,8,0:0:0:40:LR_NBell_G5.wav
369,192,42209,1,8,0:0:0:40:LR_NBell_A5.wav
426,192,42589,1,8,0:0:0:40:LR_NBell_B5.wav
28,192,42589,1,0,0:0:0:26:
312,192,42969,1,8,0:0:0:40:LR_NBell_G5.wav
85,192,42969,1,0,0:0:0:26:
142,192,43349,1,8,0:0:0:40:LR_NBell_D5.wav
199,192,43349,1,0,0:0:0:26:
256,192,43728,128,0,45627:0:0:0:53:
28,192,45627,1,0,0:0:0:53:
85,192,46007,1,0,0:0:0:53:
142,192,46387,1,0,0:0:0:53:
199,192,46766,1,0,0:0:0:53:
426,192,48665,1,8,0:0:0:40:LR_NBell_B5.wav
312,192,48665,1,0,0:0:0:26:
28,192,48665,1,0,0:0:0:0:
85,192,49045,1,0,0:0:0:53:
483,192,49425,1,8,0:0:0:40:LR_NBell_D6.wav
369,192,49425,1,8,0:0:0:26:
142,192,49425,1,0,0:0:0:0:
483,192,49804,128,8,51703:0:0:0:40:LR_NBell_D6.wav
256,192,49804,128,8,51703:0:0:0:26:
28,192,51703,1,0,0:0:0:53:
312,192,52083,1,8,0:0:0:40:LR_NBell_B5.wav
85,192,52083,1,8,0:0:0:26:
369,192,52273,1,8,0:0:0:40:LR_NBell_C6.wav
483,192,52463,1,8,0:0:0:40:LR_NBell_D6.wav
142,192,52463,1,8,0:0:0:26:
199,192,52842,128,8,53982:0:0:0:40:LR_NBell_A5.wav
426,192,52842,128,8,53982:0:0:0:26:
256,192,53982,1,8,0:0:0:40:LR_NBell_G5.wav
312,192,54361,1,8,0:0:0:40:LR_NBell_A5.wav
426,192,54741,128,8,56640:0:0:0:40:LR_NBell_A#5.wav
199,192,54741,128,0,56640:0:0:0:13:
85,192,54741,128,0,56640:0:0:0:13:
369,192,56640,1,8,0:0:0:40:LR_NBell_A#5.wav
483,192,57020,1,8,0:0:0:40:LR_NBell_C6.wav
369,192,57399,1,8,0:0:0:40:LR_NBell_A#5.wav
312,192,57779,128,8,60058:0:0:0:40:LR_NBell_A5.wav
142,192,57779,128,0,60058:0:0:0:0:
28,192,57779,128,0,60058:0:0:0:0:
256,192,60058,1,8,0:0:0:40:LR_NBell_A5.wav
199,192,60817,128,8,61956:0:0:0:40:LR_NBell_G5.wav
28,192,60817,128,0,63095:0:0:0:17:
369,192,60817,128,0,63095:0:0:0:0:
142,192,61956,128,0,63095:0:0:0:40:LR_NBell_F5.wav
85,192,63095,1,8,0:0:0:40:LR_NBell_D5.wav
426,192,63855,128,8,64994:0:0:0:40:LR_NBell_A5.wav
142,192,63855,128,0,64994:0:0:0:17:
28,192,63855,128,0,64994:0:0:0:17:
85,192,64994,128,8,66133:0:0:0:40:LR_NBell_F5.wav
369,192,64994,128,0,66133:0:0:0:0:
426,192,66133,1,8,0:0:0:40:LR_NBell_A5.wav
483,192,66893,1,8,0:0:0:40:LR_NBell_B5.wav
28,192,66893,1,8,0:0:0:26:
369,192,67273,1,8,0:0:0:40:LR_NBell_G5.wav
142,192,67273,1,8,0:0:0:26:
426,192,67652,1,8,0:0:0:40:LR_NBell_B5.wav
28,192,67652,1,8,0:0:0:26:
312,192,68032,1,8,0:0:0:40:LR_NBell_G5.wav
199,192,68032,128,8,69551:0:0:0:26:
426,192,68412,1,8,0:0:0:40:LR_NBell_B5.wav
256,192,68792,1,8,0:0:0:40:LR_NBell_G5.wav
483,192,69171,1,8,0:0:0:40:LR_NBell_C6.wav
312,192,69551,1,8,0:0:0:40:LR_NBell_G5.wav
426,192,69931,1,8,0:0:0:26:LR_NBell_A5.wav
28,192,69931,1,0,0:0:0:26:
256,192,70311,1,8,0:0:0:40:LR_NBell_F5.wav
85,192,70311,1,8,0:0:0:26:
369,192,70690,1,8,0:0:0:40:LR_NBell_C6.wav
28,192,70690,1,8,0:0:0:26:
483,192,71070,1,8,0:0:0:40:LR_NBell_G6.wav
142,192,71070,128,8,72969:0:0:0:26:
256,192,71450,1,8,0:0:0:40:LR_NBell_C5.wav
312,192,71830,1,8,0:0:0:40:LR_NBell_F5.wav
369,192,72209,1,8,0:0:0:40:LR_NBell_A5.wav
426,192,72589,1,8,0:0:0:40:LR_NBell_B5.wav
483,192,72969,1,8,0:0:0:40:LR_NBell_B5.wav
28,192,72969,1,0,0:0:0:26:
369,192,73349,1,8,0:0:0:40:LR_NBell_G5.wav
142,192,73349,1,8,0:0:0:26:
426,192,73728,1,8,0:0:0:40:LR_NBell_B5.wav
28,192,73728,1,8,0:0:0:26:
312,192,74108,1,8,0:0:0:40:LR_NBell_G5.wav
199,192,74108,128,8,75627:0:0:0:26:
426,192,74488,1,8,0:0:0:40:LR_NBell_B5.wav
256,192,74868,1,8,0:0:0:40:LR_NBell_G5.wav
483,192,75247,1,8,0:0:0:70:LR_NBell_C6.wav
312,192,75627,1,8,0:0:0:40:LR_NBell_G5.wav
426,192,76007,1,8,0:0:0:26:LR_NBell_A5.wav
28,192,76007,1,0,0:0:0:26:
256,192,76387,1,8,0:0:0:40:LR_NBell_F5.wav
85,192,76387,1,8,0:0:0:26:
369,192,76766,1,8,0:0:0:40:LR_NBell_C6.wav
28,192,76766,1,8,0:0:0:26:
483,192,77146,1,8,0:0:0:40:LR_NBell_G6.wav
142,192,77146,128,8,79045:0:0:0:26:
256,192,77526,1,8,0:0:0:40:LR_NBell_C5.wav
312,192,77906,1,8,0:0:0:40:LR_NBell_F5.wav
369,192,78285,1,8,0:0:0:40:LR_NBell_A5.wav
426,192,78665,1,8,0:0:0:40:LR_NBell_B5.wav
28,192,79045,1,8,0:0:0:40:LR_NBell_B5.wav
483,192,79045,1,8,0:0:0:26:
142,192,79425,1,8,0:0:0:40:LR_NBell_G5.wav
369,192,79425,1,8,0:0:0:26:
28,192,79804,1,8,0:0:0:40:LR_NBell_B5.wav
426,192,79804,1,8,0:0:0:26:
199,192,80184,128,8,81703:0:0:0:40:LR_NBell_G5.wav
312,192,80184,1,8,0:0:0:26:
426,192,80564,1,8,0:0:0:40:LR_NBell_B5.wav
256,192,80944,1,8,0:0:0:40:LR_NBell_G5.wav
483,192,81323,1,8,0:0:0:53:LR_NBell_C6.wav
312,192,81703,1,8,0:0:0:40:LR_NBell_G5.wav
28,192,82083,1,8,0:0:0:40:LR_NBell_A5.wav
426,192,82083,1,0,0:0:0:26:
85,192,82463,1,8,0:0:0:40:LR_NBell_F5.wav
256,192,82463,1,8,0:0:0:26:
28,192,82842,1,8,0:0:0:40:LR_NBell_C6.wav
369,192,82842,1,8,0:0:0:26:
142,192,83222,128,8,85121:0:0:0:40:LR_NBell_G6.wav
483,192,83222,1,8,0:0:0:26:
256,192,83602,1,8,0:0:0:40:LR_NBell_C5.wav
312,192,83982,1,8,0:0:0:40:LR_NBell_F5.wav
369,192,84361,1,8,0:0:0:40:LR_NBell_A5.wav
426,192,84741,1,8,0:0:0:40:LR_NBell_B5.wav
483,192,85121,1,8,0:0:0:40:LR_NBell_B5.wav
28,192,85121,1,0,0:0:0:26:
369,192,85501,1,8,0:0:0:40:LR_NBell_G5.wav
142,192,85501,1,8,0:0:0:26:
426,192,85880,1,8,0:0:0:40:LR_NBell_B5.wav
28,192,85880,1,8,0:0:0:26:
312,192,86260,1,8,0:0:0:40:LR_NBell_G5.wav
199,192,86260,128,8,87779:0:0:0:26:
426,192,86640,1,8,0:0:0:40:LR_NBell_B5.wav
256,192,87020,1,8,0:0:0:40:LR_NBell_G5.wav
483,192,87399,1,8,0:0:0:40:LR_NBell_C6.wav
312,192,87779,1,8,0:0:0:40:LR_NBell_G5.wav
426,192,88159,1,8,0:0:0:40:LR_NBell_A5.wav
28,192,88159,1,0,0:0:0:26:
256,192,88543,1,8,0:0:0:40:LR_NBell_F5.wav
85,192,88543,1,8,0:0:0:26:
369,192,88932,1,8,0:0:0:70:LR_NBell_C6.wav
28,192,88932,1,8,0:0:0:26:
483,192,89326,1,8,0:0:0:40:LR_NBell_G6.wav
142,192,89326,128,8,91387:0:0:0:26:
256,192,89726,1,8,0:0:0:40:LR_NBell_C5.wav
312,192,90126,1,8,0:0:0:40:LR_NBell_F5.wav
369,192,90526,1,8,0:0:0:40:LR_NBell_A5.wav
426,192,90926,1,8,0:0:0:40:LR_NBell_B5.wav
28,192,91387,1,0,0:0:0:26:
85,192,91870,1,0,0:0:0:26:
199,192,92361,1,0,0:0:0:13:
256,192,92916,1,0,0:0:0:0:
