osu file format v14

[General]
AudioFilename: audio.mp3
AudioLeadIn: 0
PreviewTime: 116
Countdown: 0
SampleSet: Soft
StackLeniency: 0.7
Mode: 0
LetterboxInBreaks: 0
WidescreenStoryboard: 1

[Editor]
DistanceSpacing: 1.5
BeatDivisor: 4
GridSize: 32
TimelineZoom: 1

[Metadata]
Title:Manten
TitleUnicode:満天
Artist:R3 Music Box
ArtistUnicode:R3 Music Box
Creator:Rolniczy
Version:Hard
Source:Fate/Zero
Tags:フェイト/ゼロ fate zero kalafina カラフィナ 2nd second season ed ending yuki kajiura 梶浦由記 let the stars fall down consolation
BeatmapID:1811193
BeatmapSetID:866275

[Difficulty]
HPDrainRate:5
CircleSize:4
OverallDifficulty:6.4
ApproachRate:7
SliderMultiplier:0.999999999999999
SliderTickRate:1

[Events]
//Background and Video events
0,0,"r3saber.jpg",0,0
//Break Periods
//Storyboard Layer 0 (Background)
//Storyboard Layer 1 (Fail)
//Storyboard Layer 2 (Pass)
//Storyboard Layer 3 (Foreground)
//Storyboard Sound Samples

[TimingPoints]
110,410.958904109589,6,2,1,50,1,0
110,-100,3,2,1,50,0,0
2575,-83.3333333333333,3,2,1,50,0,0
3603,-83.3333333333333,3,2,1,5,0,0
3808,-83.3333333333333,3,2,1,50,0,0
5041,-76.9230769230769,3,2,1,50,0,0
6068,-83.3333333333333,3,2,1,5,0,0
6274,-76.9230769230769,3,2,1,50,0,0
8534,-83.3333333333333,3,2,1,5,0,0
8740,-71.4285714285714,3,2,1,50,0,0
8945,-83.3333333333333,3,2,1,5,0,0
9151,-71.4285714285714,3,2,1,50,0,0
9356,-83.3333333333333,3,2,1,5,0,0
9562,-71.4285714285714,3,2,1,50,0,0
9767,-83.3333333333333,3,2,1,5,0,0
9973,-90.9090909090909,3,2,1,50,0,0
12438,-83.3333333333333,3,2,1,50,0,0
13466,-83.3333333333333,3,2,1,5,0,0
13671,-83.3333333333333,3,2,1,50,0,0
14904,-76.9230769230769,3,2,1,50,0,0
15931,-83.3333333333333,3,2,1,5,0,0
16137,-76.9230769230769,3,2,1,50,0,0
17370,-90.9090909090909,3,2,1,50,0,0
18397,-83.3333333333333,3,2,1,5,0,0
18603,-90.9090909090909,3,2,1,50,0,0
22301,-83.3333333333333,3,2,1,50,0,0
23329,-83.3333333333333,3,2,1,5,0,0
23534,-83.3333333333333,3,2,1,50,0,0
24767,-76.9230769230769,3,2,1,50,0,0
25794,-83.3333333333333,3,2,1,5,0,0
26000,-76.9230769230769,3,2,1,50,0,0
28260,-83.3333333333333,3,2,1,5,0,0
28466,-71.4285714285714,3,2,1,50,0,0
28671,-83.3333333333333,3,2,1,5,0,0
28877,-71.4285714285714,3,2,1,50,0,0
29082,-83.3333333333333,3,2,1,5,0,0
29288,-71.4285714285714,3,2,1,50,0,0
29493,-83.3333333333333,3,2,1,5,0,0
29699,-90.9090909090909,3,2,1,50,0,0
32164,-83.3333333333333,3,2,1,50,0,0
33192,-83.3333333333333,3,2,1,5,0,0
33397,-83.3333333333333,3,2,1,50,0,0
34630,-71.4285714285714,3,2,1,50,0,0
35657,-83.3333333333333,3,2,1,5,0,0
35869,431.654676258993,6,2,1,50,1,0
35869,-71.4285714285714,3,2,1,50,0,0
36763,422.535211267606,6,2,1,50,1,0
37185,480,6,2,1,50,1,0
37665,504.201680672269,6,2,1,50,1,0
38153,560.747663551402,6,2,1,50,1,0
38713,560.747663551402,6,2,1,30,1,0

[Colours]
Combo1 : 219,196,125
Combo2 : 64,81,138
Combo3 : 158,138,75
Combo4 : 145,157,189

[HitObjects]
65,182,110,6,0,P|69:241|89:289,1,100,0|0,3:2|0:0,0:0:0:0:
256,171,931,1,0,0:0:0:0:
66,75,1342,2,0,P|115:109|170:120,1,100,2|0,3:2|0:0,0:0:0:0:
373,53,2164,1,0,3:0:0:0:
232,192,2575,6,0,P|208:248|214:317,1,119.999996337891,0|0,3:2|0:0,0:0:0:0:
343,217,3192,1,0,3:0:0:0:
313,108,3397,2,0,P|282:78|249:69,1,59.9999981689454,0|0,0:0|0:0,0:0:0:0:
370,233,3808,2,0,P|434:247|495:223,1,119.999996337891,2|0,3:2|0:0,0:0:0:0:
369,21,4630,1,0,3:0:0:0:
174,120,5041,6,0,P|243:140|337:102,1,129.999994049073,0|0,3:2|0:0,0:0:0:0:
225,12,5657,1,0,3:0:0:0:
97,69,5863,2,0,P|85:106|90:141,1,64.9999970245363
137,323,6274,2,0,P|152:242|134:174,1,129.999994049073,2|0,3:2|0:0,0:0:0:0:
14,384,7096,1,0,3:0:0:0:
117,164,7507,6,0,P|196:143|276:168,1,129.999994049073,0|0,3:2|0:0,0:0:0:0:
357,239,8123,1,0,3:0:0:0:
242,298,8329,2,0,P|238:263|247:233,1,64.9999970245363,0|0,3:0|0:0,0:0:0:0:
454,149,8740,6,0,L|445:234,1,69.9999978637696,2|0,3:2|0:0,0:0:0:0:
362,140,9151,2,0,L|355:71,1,69.9999978637696
482,52,9562,2,0,L|473:137,1,69.9999978637696,0|0,3:0|0:0,0:0:0:0:
274,154,9973,6,0,P|252:85|273:10,1,110.000003356934,4|0,3:2|0:0,0:0:0:0:
368,229,10794,1,0,0:0:0:0:
474,121,11205,2,0,P|476:66|456:15,1,110.000003356934,2|0,3:2|0:0,0:0:0:0:
427,286,12027,1,0,3:0:0:0:
321,110,12438,6,0,P|242:95|192:116,1,119.999996337891,0|0,3:2|0:0,0:0:0:0:
100,211,13055,1,0,3:0:0:0:
236,310,13260,2,0,P|248:242|241:214,1,59.9999981689454,0|0,0:0|0:0,0:0:0:0:
66,192,13671,2,0,P|43:250|55:349,1,119.999996337891,2|0,3:2|0:0,0:0:0:0:
186,190,14493,1,0,3:2:0:0:
9,41,14904,6,0,P|92:63|169:32,1,129.999994049073,0|0,3:2|0:0,0:0:0:0:
276,9,15520,1,0,3:2:0:0:
229,133,15726,2,0,P|221:160|225:202,1,64.9999970245363,0|0,0:0|0:0,0:0:0:0:
357,268,16137,2,0,P|374:201|354:124,1,129.999994049073,2|0,3:2|0:0,0:0:0:0:
95,209,16959,1,0,3:2:0:0:
299,68,17370,6,0,P|364:57|417:75,1,110.000003356934,0|0,3:2|0:0,0:0:0:0:
483,202,17986,1,0,3:2:0:0:
357,268,18192,2,0,P|324:276|284:265,1,55.0000016784668,0|0,3:2|0:0,0:0:0:0:
138,177,18603,5,2,3:2:0:0:
148,158,19014,1,0,0:0:0:0:
138,141,19425,1,0,0:0:0:0:
41,322,19836,6,0,P|88:344|163:352,1,110.000003356934,4|0,3:2|0:0,0:0:0:0:
357,352,20657,1,0,0:0:0:0:
339,159,21068,2,0,P|282:148|213:155,1,110.000003356934,2|0,3:2|0:0,0:0:0:0:
51,198,21890,1,0,3:0:0:0:
286,55,22301,6,0,P|355:49|418:86,1,119.999996337891,0|0,3:2|0:0,0:0:0:0:
479,185,22918,1,0,3:0:0:0:
329,256,23123,2,0,P|315:215|320:182,1,59.9999981689454,0|0,0:0|0:0,0:0:0:0:
419,333,23534,2,0,P|344:366|272:350,1,119.999996337891,2|0,3:2|0:0,0:0:0:0:
106,298,24356,1,0,3:0:0:0:
315,376,24767,6,0,P|374:374|437:337,1,129.999994049073,0|0,3:2|0:0,0:0:0:0:
491,211,25383,1,0,3:0:0:0:
394,104,25589,2,0,P|368:93|328:97,1,64.9999970245363,0|0,0:0|0:0,0:0:0:0:
263,228,26000,2,0,P|316:246|400:223,1,129.999994049073,2|0,3:2|0:0,0:0:0:0:
176,90,26822,1,0,3:0:0:0:
39,238,27233,6,0,P|23:300|42:361,1,129.999994049073,0|0,3:2|0:0,0:0:0:0:
206,376,27849,1,0,3:0:0:0:
263,228,28055,2,0,P|264:195|259:163,1,64.9999970245363,0|0,3:0|0:0,0:0:0:0:
59,142,28466,6,0,L|71:233,1,69.9999978637696,2|0,3:2|0:0,0:0:0:0:
154,126,28877,2,0,L|163:56,1,69.9999978637696
29,31,29288,2,0,L|38:100,1,69.9999978637696,0|0,3:0|0:0,0:0:0:0:
286,161,29699,6,0,P|302:94|291:13,1,110.000003356934,4|0,3:2|0:0,0:0:0:0:
186,233,30520,1,0,0:0:0:0:
62,62,30931,2,0,P|62:116|76:169,1,110.000003356934,2|0,3:2|0:0,0:0:0:0:
179,0,31753,1,0,3:0:0:0:
322,165,32164,6,0,P|343:229|322:310,1,119.999996337891,0|0,3:2|0:0,0:0:0:0:
169,341,32781,1,0,3:0:0:0:
110,191,32986,2,0,P|108:165|116:116,1,59.9999981689454,0|0,0:0|0:0,0:0:0:0:
322,165,33397,2,0,P|266:190|192:180,1,119.999996337891,2|0,3:2|0:0,0:0:0:0:
343,19,34219,1,0,3:2:0:0:
100,123,34630,6,0,P|74:223|80:289,1,139.999995727539,0|0,3:2|0:0,0:0:0:0:
206,375,35246,1,0,3:2:0:0:
334,245,35452,2,0,P|347:194|342:150,1,69.9999978637696,0|0,0:0|0:0,0:0:0:0:
245,269,35869,2,0,P|287:330|373:328,1,139.999995727539,2|0,3:2|0:0,0:0:0:0:
440,144,36763,1,0,3:2:0:0:
237,60,37185,6,0,P|218:121|230:184,1,100,0|0,3:2|0:0,0:0:0:0:
277,262,37917,1,0,3:2:0:0:
346,180,38153,2,0,P|354:101|342:64,1,100,0|6,3:2|3:2,0:0:0:0:
