osu file format v14

[General]
AudioFilename: audio.mp3
AudioLeadIn: 0
PreviewTime: 116
Countdown: 0
SampleSet: Soft
StackLeniency: 0.7
Mode: 0
LetterboxInBreaks: 0
WidescreenStoryboard: 1

[Editor]
DistanceSpacing: 1.5
BeatDivisor: 4
GridSize: 32
TimelineZoom: 1.3

[Metadata]
Title:Manten
TitleUnicode:満天
Artist:R3 Music Box
ArtistUnicode:R3 Music Box
Creator:Rolniczy
Version:Despair
Source:Fate/Zero
Tags:フェイト/ゼロ fate zero kalafina カラフィナ 2nd second season ed ending yuki kajiura 梶浦由記 let the stars fall down consolation
BeatmapID:1811190
BeatmapSetID:866275

[Difficulty]
HPDrainRate:5.5
CircleSize:4.3
OverallDifficulty:7
ApproachRate:8
SliderMultiplier:1.35
SliderTickRate:1

[Events]
//Background and Video events
0,0,"r3saber.jpg",0,0
//Break Periods
//Storyboard Layer 0 (Background)
//Storyboard Layer 1 (Fail)
//Storyboard Layer 2 (Pass)
//Storyboard Layer 3 (Foreground)
//Storyboard Sound Samples

[TimingPoints]
110,410.958904109589,6,2,1,50,1,0
726,-100,6,2,1,5,0,0
931,-83.3333333333333,6,2,1,50,0,0
1137,-100,6,2,1,5,0,0
1342,-83.3333333333333,6,2,1,50,0,0
1959,-100,6,2,1,5,0,0
2164,-71.4285714285714,6,2,1,50,0,0
2370,-100,6,2,1,5,0,0
2575,-76.9230769230769,6,2,1,50,0,0
3808,-83.3333333333333,6,2,1,50,0,0
4425,-100,6,2,1,5,0,0
4630,-83.3333333333333,6,2,1,50,0,0
4836,-100,6,2,1,5,0,0
5041,-76.9230769230769,6,2,1,50,0,0
5863,-83.3333333333333,6,2,1,50,0,0
6068,-100,6,2,1,5,0,0
6274,-76.9230769230769,6,2,1,50,0,0
6890,-100,6,2,1,5,0,0
7096,-83.3333333333333,6,2,1,50,0,0
7301,-100,6,2,1,5,0,0
7507,-90.9090909090909,6,2,1,50,0,0
8329,-83.3333333333333,6,2,1,50,0,0
8534,-100,6,2,1,5,0,0
8740,-66.6666666666667,6,2,1,50,0,0
8945,-100,6,2,1,5,0,0
9151,-62.5,6,2,1,50,0,0
9356,-100,6,2,1,5,0,0
9562,-58.8235294117647,6,2,1,50,0,0
9767,-100,6,2,1,5,0,0
9973,-90.9090909090909,6,2,1,50,0,0
10589,-100,6,2,1,5,0,0
10794,-83.3333333333333,6,2,1,50,0,0
11000,-100,6,2,1,5,0,0
11205,-83.3333333333333,6,2,1,50,0,0
11822,-100,6,2,1,5,0,0
12027,-71.4285714285714,6,2,1,50,0,0
12233,-100,6,2,1,5,0,0
12438,-76.9230769230769,6,2,1,50,0,0
13671,-83.3333333333333,6,2,1,50,0,0
14288,-100,6,2,1,5,0,0
14493,-83.3333333333333,6,2,1,50,0,0
14699,-100,6,2,1,5,0,0
14904,-76.9230769230769,6,2,1,50,0,0
15726,-90.9090909090909,6,2,1,50,0,0
15931,-100,6,2,1,5,0,0
16137,-83.3333333333333,6,2,1,50,0,0
16753,-100,6,2,1,5,0,0
16959,-90.9090909090909,6,2,1,50,0,0
17164,-100,6,2,1,5,0,0
17370,-90.9090909090909,6,2,1,50,0,0
18397,-100,6,2,1,5,0,0
18603,-90.9090909090909,6,2,1,50,0,0
19836,-100,6,2,1,50,0,0
20452,-100,6,2,1,5,0,0
20657,-83.3333333333333,6,2,1,50,0,0
20863,-100,6,2,1,5,0,0
21068,-83.3333333333333,6,2,1,50,0,0
21685,-100,6,2,1,5,0,0
21890,-71.4285714285714,6,2,1,50,0,0
22096,-100,6,2,1,5,0,0
22301,-76.9230769230769,6,2,1,50,0,0
23534,-83.3333333333333,6,2,1,50,0,0
24151,-100,6,2,1,5,0,0
24356,-83.3333333333333,6,2,1,50,0,0
24562,-100,6,2,1,5,0,0
24767,-76.9230769230769,6,2,1,50,0,0
25589,-90.9090909090909,6,2,1,50,0,0
25794,-100,6,2,1,5,0,0
26000,-83.3333333333333,6,2,1,50,0,0
26616,-100,6,2,1,5,0,0
26822,-83.3333333333333,6,2,1,50,0,0
27027,-100,6,2,1,5,0,0
27233,-90.9090909090909,6,2,1,50,0,0
28055,-83.3333333333333,6,2,1,50,0,0
28260,-100,6,2,1,5,0,0
28466,-66.6666666666667,6,2,1,50,0,0
28671,-100,6,2,1,5,0,0
28877,-62.5,6,2,1,50,0,0
29082,-100,6,2,1,5,0,0
29288,-58.8235294117647,6,2,1,50,0,0
29493,-100,6,2,1,5,0,0
29699,-90.9090909090909,6,2,1,50,0,0
30315,-100,6,2,1,5,0,0
30520,-83.3333333333333,6,2,1,50,0,0
30726,-100,6,2,1,5,0,0
30931,-83.3333333333333,6,2,1,50,0,0
31548,-100,6,2,1,5,0,0
31753,-71.4285714285714,6,2,1,50,0,0
31959,-100,6,2,1,5,0,0
32164,-76.9230769230769,6,2,1,50,0,0
33192,-100,6,2,1,5,0,0
33397,-83.3333333333333,6,2,1,50,0,0
34014,-100,6,2,1,5,0,0
34219,-83.3333333333333,6,2,1,50,0,0
34425,-100,6,2,1,5,0,0
34630,-76.9230769230769,6,2,1,50,0,0
35657,-100,6,2,1,5,0,0
35869,431.654676258993,6,2,1,50,1,0
35869,-90.9090909090909,6,2,1,50,0,0
36516,-100,6,2,1,5,0,0
36763,422.535211267606,6,2,1,50,1,0
36974,-100,6,2,1,5,0,0
37185,480,6,2,1,50,1,0
37665,504.201680672269,6,2,1,50,1,0
38153,560.747663551402,6,2,1,50,1,0
38713,560.747663551402,6,2,1,30,1,0

[Colours]
Combo1 : 219,196,125
Combo2 : 64,81,138
Combo3 : 158,138,75
Combo4 : 145,157,189

[HitObjects]
196,82,110,6,0,P|120:144|88:258,1,202.5,0|0,3:2|0:0,0:0:0:0:
191,315,931,2,0,P|193:265|163:228,1,80.9999975280763,0|0,0:0|0:0,0:0:0:0:
60,150,1342,2,0,P|160:168|343:124,1,242.999992584229,2|0,3:2|0:0,0:0:0:0:
430,90,2164,2,0,P|408:121|407:194,1,94.4999971160889,0|0,3:0|0:0,0:0:0:0:
488,333,2575,6,0,P|500:246|479:161,1,175.499991966248,0|0,3:2|0:0,0:0:0:0:
290,12,3192,1,0,3:0:0:0:
134,211,3397,1,0,0:0:0:0:
120,229,3808,2,0,B|234:199|225:290|397:225,1,242.999992584229,2|0,3:2|0:0,0:0:0:0:
479,161,4630,2,0,L|488:58,1,80.9999975280763,0|0,3:0|0:0,0:0:0:0:
352,39,5041,6,0,P|329:123|343:209,1,175.499991966248,0|0,3:2|0:0,0:0:0:0:
407,346,5657,1,0,3:0:0:0:
241,251,5863,2,0,P|199:242|145:248,1,80.9999975280763,0|0,0:0|0:0,0:0:0:0:
28,315,6274,2,0,P|117:303|215:135,1,263.249987949372,2|0,3:2|0:0,0:0:0:0:
233,52,7096,2,0,P|209:44|140:54,1,80.9999975280763,0|0,3:0|0:0,0:0:0:0:
52,149,7507,6,0,P|150:159|241:135,1,148.50000453186,0|0,3:2|0:0,0:0:0:0:
356,87,8123,1,0,3:0:0:0:
233,52,8329,2,0,P|224:101|233:143,1,80.9999975280763,0|0,3:0|0:0,0:0:0:0:
321,296,8740,6,0,L|331:187,1,101.250003862381,2|0,3:2|0:0,0:0:0:0:
441,147,9151,2,0,L|451:256,1,108
213,346,9562,2,0,L|203:231,1,114.750002188683,0|0,3:0|0:0,0:0:0:0:
118,82,9973,6,0,P|177:140|346:110,1,222.750006797791,4|0,3:2|0:0,0:0:0:0:
310,8,10794,2,0,P|272:36|262:122,1,80.9999975280763,0|0,0:0|0:0,0:0:0:0:
284,218,11205,2,0,P|259:105|136:4,1,242.999992584229,2|0,3:2|0:0,0:0:0:0:
16,137,12027,2,0,P|52:142|132:123,1,94.4999971160889,0|0,3:0|0:0,0:0:0:0:
310,8,12438,6,0,P|259:79|248:165,1,175.499991966248,0|0,3:2|0:0,0:0:0:0:
286,337,13055,1,0,3:0:0:0:
136,143,13260,1,0,0:0:0:0:
124,130,13671,2,0,B|270:181|397:129|397:129,1,242.999992584229,2|0,3:2|0:0,0:0:0:0:
318,44,14493,2,0,P|288:83|294:164,1,80.9999975280763,0|0,3:2|0:0,0:0:0:0:
355,255,14904,6,0,P|250:194|164:220,1,175.499991966248,0|0,3:2|0:0,0:0:0:0:
50,263,15520,1,0,3:2:0:0:
166,329,15726,2,0,P|193:334|247:323,1,74.2500022659302,0|0,0:0|0:0,0:0:0:0:
82,119,16137,2,0,P|20:251|31:369,1,242.999992584229,2|0,3:2|0:0,0:0:0:0:
238,326,16959,2,0,P|246:288|245:244,1,74.2500022659302,0|0,3:2|0:0,0:0:0:0:
165,126,17370,6,0,P|231:171|334:138,1,148.50000453186,0|0,3:2|0:0,0:0:0:0:
453,95,17986,1,0,3:2:0:0:
348,10,18192,2,0,P|313:2|260:19,1,74.2500022659302,0|0,3:2|0:0,0:0:0:0:
165,126,18603,5,2,3:2:0:0:
171,143,19014,1,0,0:0:0:0:
166,162,19425,1,0,0:0:0:0:
199,45,19836,6,0,P|267:-1|399:59,1,202.5,4|0,3:2|0:0,0:0:0:0:
424,145,20657,2,0,P|381:158|335:150,1,80.9999975280763
212,60,21068,2,0,P|263:158|253:309,1,242.999992584229,2|0,3:2|0:0,0:0:0:0:
91,305,21890,2,0,P|93:262|116:197,1,94.4999971160889,0|0,3:0|0:0,0:0:0:0:
330,105,22301,6,0,P|245:163|127:172,1,175.499991966248,0|0,3:2|0:0,0:0:0:0:
51,8,22918,1,0,3:0:0:0:
324,14,23123,1,0,0:0:0:0:
311,3,23534,2,0,B|253:120|372:121|286:295,1,242.999992584229,2|0,3:2|0:0,0:0:0:0:
176,324,24356,2,0,P|171:284|181:244,1,80.9999975280763,0|0,3:0|0:0,0:0:0:0:
340,125,24767,6,0,P|236:152|135:106,1,175.499991966248,0|0,3:2|0:0,0:0:0:0:
59,29,25383,1,0,3:0:0:0:
246,39,25589,2,0,P|255:75|257:112,1,74.2500022659302
233,347,26000,2,0,P|202:228|241:74,1,242.999992584229,2|0,3:2|0:0,0:0:0:0:
361,78,26822,2,0,P|366:127|354:179,1,80.9999975280763,0|0,3:0|0:0,0:0:0:0:
200,100,27233,6,0,P|254:31|330:12,1,148.50000453186,0|0,3:2|0:0,0:0:0:0:
468,66,27849,1,0,3:0:0:0:
348,168,28055,2,0,P|311:178|248:163,1,80.9999975280763,0|0,3:0|0:0,0:0:0:0:
121,104,28466,6,0,L|135:226,1,101.250003862381,2|0,3:2|0:0,0:0:0:0:
9,266,28877,2,0,L|23:147,1,108
236,24,29288,2,0,L|250:138,1,114.750002188683,0|0,3:0|0:0,0:0:0:0:
364,289,29699,6,0,P|357:177|256:121,1,222.750006797791,4|0,3:2|0:0,0:0:0:0:
154,266,30520,2,0,P|200:276|251:265,1,80.9999975280763,0|0,0:0|0:0,0:0:0:0:
138,148,30931,2,0,P|54:165|63:325,1,242.999992584229,2|0,3:2|0:0,0:0:0:0:
301,314,31753,2,0,P|310:271|297:211,1,94.4999971160889,0|0,3:0|0:0,0:0:0:0:
128,80,32164,6,0,P|222:110|356:78,1,175.499991966248,0|0,3:2|0:0,0:0:0:0:
477,57,32781,1,0,3:0:0:0:
247,16,32986,2,0,P|229:63|236:137,1,87.749995983124,0|0,0:0|0:0,0:0:0:0:
300,222,33397,2,0,P|211:178|147:313,1,242.999992584229,2|0,3:2|0:0,0:0:0:0:
281,349,34219,2,0,L|385:339,1,80.9999975280763,0|0,3:2|0:0,0:0:0:0:
482,231,34630,6,0,P|389:251|273:215,1,175.499991966248,0|0,3:2|0:0,0:0:0:0:
189,160,35246,1,0,3:2:0:0:
358,134,35452,2,0,P|377:171|372:251,1,87.749995983124,0|0,0:0|0:0,0:0:0:0:
193,127,35869,2,0,P|239:43|386:13,1,222.750006797791,2|0,3:2|0:0,0:0:0:0:
442,118,36763,2,0,L|456:183,1,67.5,0|0,3:2|0:0,0:0:0:0:
478,281,37185,6,0,P|418:224|352:222,1,135,0|0,3:2|0:0,0:0:0:0:
257,238,37917,1,0,3:2:0:0:
314,149,38153,1,0,3:2:0:0:
325,129,38713,1,6,3:2:0:0:
