osu file format v14

[General]
AudioFilename: Icon For Hire - Make A Move [Music Box].mp3
AudioLeadIn: 0
PreviewTime: 25482
Countdown: 0
SampleSet: Normal
StackLeniency: 0.7
Mode: 0
LetterboxInBreaks: 0
WidescreenStoryboard: 1

[Editor]
Bookmarks: 1082,13482,25882
DistanceSpacing: 1
BeatDivisor: 4
GridSize: 32
TimelineZoom: 1

[Metadata]
Title:Make A Move
TitleUnicode:Make A Move
Artist:R3 Music Box
ArtistUnicode:R3 Music Box
Creator:KecHik445
Version:Final Boss
Source:
Tags:Icon For Hire
BeatmapID:1815737
BeatmapSetID:859568

[Difficulty]
HPDrainRate:6
CircleSize:5
OverallDifficulty:8
ApproachRate:9
SliderMultiplier:1.8
SliderTickRate:4

[Events]
//Background and Video events
0,0,"39185_anime_scenery_girl_and_the_city.jpg",0,0
//Break Periods
//Storyboard Layer 0 (Background)
//Storyboard Layer 1 (Fail)
//Storyboard Layer 2 (Pass)
//Storyboard Layer 3 (Foreground)
//Storyboard Sound Samples

[TimingPoints]
82,800,4,1,0,100,1,0
282,800,4,1,0,100,1,0
282,-50,4,1,0,100,0,0
13082,-66.6666666666667,4,1,0,100,0,0
13882,-50,4,1,0,100,0,0
16282,-66.6666666666667,4,1,0,100,0,0
17082,-50,4,1,0,100,0,0
19482,-66.6666666666667,4,1,0,100,0,0
20282,-50,4,1,0,100,0,0
38682,-66.6666666666667,4,1,0,100,0,0
39482,-50,4,1,0,100,0,0
41882,-66.6666666666667,4,1,0,100,0,0
42682,-50,4,1,0,100,0,0
45082,-66.6666666666667,4,1,0,100,0,0
45882,-50,4,1,0,100,0,0
49482,882.352941176471,4,1,0,100,1,0
49923,-100,4,1,0,100,0,0
51467,-100,4,1,0,56,0,0
53011,-100,4,1,0,30,0,0

[HitObjects]
160,314,82,5,0,0:0:0:0:
124,61,282,1,0,0:0:0:0:
301,244,482,1,0,0:0:0:0:
50,200,682,1,0,0:0:0:0:
279,88,882,1,0,0:0:0:0:
461,335,1082,6,0,P|474:292|466:247,1,90
370,38,1482,2,0,P|362:82|375:125,1,90
335,311,1882,5,0,0:0:0:0:
302,117,2082,1,0,0:0:0:0:
170,256,2282,1,0,0:0:0:0:
137,62,2482,1,0,0:0:0:0:
14,197,2683,6,0,P|57:178|101:176,1,90
326,315,3082,2,0,P|283:334|239:336,1,90
135,77,3482,5,0,0:0:0:0:
369,167,3682,1,0,0:0:0:0:
174,325,3882,1,0,0:0:0:0:
278,54,4082,1,0,0:0:0:0:
316,302,4282,1,0,0:0:0:0:
82,212,4482,1,0,0:0:0:0:
406,67,4682,2,0,P|473:66|492:89,1,90
377,307,5082,5,0,0:0:0:0:
143,217,5282,1,0,0:0:0:0:
338,59,5482,1,0,0:0:0:0:
234,330,5682,1,0,0:0:0:0:
196,82,5882,1,0,0:0:0:0:
430,172,6082,1,0,0:0:0:0:
106,317,6282,2,0,P|39:318|20:295,1,90
51,115,6682,5,0,0:0:0:0:
125,207,6882,1,0,0:0:0:0:
217,133,7082,1,0,0:0:0:0:
143,41,7282,1,0,0:0:0:0:
237,267,7482,6,0,P|281:251|303:201,1,90
372,14,7882,2,0,P|330:28|307:65,1,90
461,269,8282,5,0,0:0:0:0:
387,177,8482,1,0,0:0:0:0:
295,251,8682,1,0,0:0:0:0:
369,343,8882,1,0,0:0:0:0:
275,117,9082,6,0,P|231:133|209:183,1,90
140,370,9482,2,0,P|181:355|204:318,1,90
137,143,9882,5,0,0:0:0:0:
125,294,10082,1,0,0:0:0:0:
243,184,10282,1,0,0:0:0:0:
38,215,10482,1,0,0:0:0:0:
247,311,10682,2,0,P|335:325|373:244,1,180
265,68,11282,5,0,0:0:0:0:
299,253,11482,1,0,0:0:0:0:
413,92,11682,1,0,0:0:0:0:
162,158,11882,1,0,0:0:0:0:
413,222,12082,1,0,0:0:0:0:
322,0,12282,1,0,0:0:0:0:
223,270,12482,1,0,0:0:0:0:
512,185,12682,2,0,P|438:160|403:158,1,90
235,176,13082,6,0,B|265:173|265:173|295:156|295:156|331:154,2,101.250003862381
69,337,13882,6,0,L|26:150,1,180
118,157,14482,1,0,0:1:0:0:
88,71,14682,6,0,B|180:62|180:62|263:6,1,180
346,22,15282,1,0,0:0:0:0:
450,116,15482,6,0,P|362:95|259:136,1,180
214,184,16082,1,0,0:0:0:0:
287,354,16282,6,0,B|275:325|275:325|243:304|243:304|230:277,2,101.250003862381
437,281,17082,6,0,P|359:242|325:147,1,180
360,76,17682,1,0,0:0:0:0:
258,16,17882,6,0,B|280:100|280:100|231:184,1,180
157,230,18482,1,0,0:0:0:0:
153,318,18682,6,0,L|338:345,1,180
458,201,19282,1,0,0:0:0:0:
458,201,19482,6,0,B|427:218|427:218|396:215|396:215|350:239,1,101.250003862381
246,185,20082,1,0,0:0:0:0:
312,104,20282,2,0,L|301:286,1,180
237,346,20882,1,0,0:0:0:0:
110,343,21082,6,0,B|179:287|179:287|194:167,1,180
124,134,21682,1,0,0:0:0:0:
99,240,21882,6,0,P|202:202|226:129,1,180
216,53,22482,1,0,0:0:0:0:
366,31,22682,6,0,P|346:79|348:131,1,90
380,199,23082,1,0,0:0:0:0:
448,340,23282,2,0,P|483:211|472:165,2,180
272,248,24282,6,0,P|215:242|170:269,2,90
328,326,24882,1,0,0:0:0:0:
367,146,25082,1,0,0:0:0:0:
187,107,25282,1,0,0:0:0:0:
148,287,25482,1,0,0:0:0:0:
227,356,25682,5,0,0:0:0:0:
398,248,25882,1,0,0:0:0:0:
328,326,26082,1,0,0:0:0:0:
367,146,26282,1,0,0:0:0:0:
398,248,26482,1,0,0:0:0:0:
220,56,26682,6,0,P|262:42|305:52,1,90
200,205,27082,2,0,P|157:219|114:209,1,90
176,337,27482,5,0,0:0:0:0:
123,89,27682,1,0,0:0:0:0:
179,337,27882,1,0,0:0:0:0:
126,89,28082,1,0,0:0:0:0:
68,342,28282,6,0,P|72:297|96:260,1,90
248,64,28682,2,0,P|243:108|219:145,1,90
299,341,29082,5,0,0:0:0:0:
438,114,29282,1,0,0:0:0:0:
481,316,29482,1,0,0:0:0:0:
264,160,29682,1,0,0:0:0:0:
132,314,29882,6,0,P|156:245|144:200,1,90
35,56,30282,2,0,P|11:125|23:170,1,90
213,341,30682,5,0,0:0:0:0:
74,114,30882,1,0,0:0:0:0:
31,316,31082,1,0,0:0:0:0:
248,160,31282,1,0,0:0:0:0:
380,314,31482,6,0,P|356:245|368:200,1,90
477,56,31882,2,0,P|501:125|489:170,1,90
232,341,32282,6,0,L|241:226,1,90
261,61,32682,1,0,0:0:0:0:
94,161,32882,1,0,0:0:0:0:
422,156,33082,6,0,P|377:142|331:153,1,90
69,291,33482,2,0,P|114:305|160:294,1,90
232,43,33882,6,0,L|241:158,1,90
261,323,34282,1,0,0:0:0:0:
94,223,34482,1,0,0:0:0:0:
422,228,34682,6,0,P|377:242|331:231,1,90
69,93,35082,2,0,P|114:79|160:90,1,90
390,260,35482,5,0,0:0:0:0:
122,213,35682,1,0,0:0:0:0:
367,93,35882,1,0,0:0:0:0:
239,334,36082,1,0,0:0:0:0:
201,64,36282,2,0,P|201:11|231:71,1,180
172,270,36882,6,0,P|152:332|112:373,1,90
340,270,37282,2,0,P|360:332|400:373,1,90
141,188,37682,1,0,0:0:0:0:
371,121,37882,1,0,0:0:0:0:
78,121,38082,1,0,0:0:0:0:
433,188,38282,1,0,0:0:0:0:
370,255,38682,6,0,B|370:305|370:305|408:344,2,101.250003862381
229,15,39482,6,0,P|296:69|291:156,1,180
168,83,40082,1,0,0:0:0:0:
79,219,40282,6,0,P|133:151|220:156,1,180
147,280,40882,1,0,0:0:0:0:
283,369,41082,6,0,P|215:314|220:227,1,180
344,301,41682,1,0,0:0:0:0:
412,148,41882,6,0,B|459:128|459:128|509:128,2,101.250003862381
52,258,42682,6,0,B|95:299|104:331|104:331|135:327|201:346,1,180
273,304,43282,1,0,0:0:0:0:
269,23,43482,6,0,B|211:40|179:31|179:31|167:60|117:107,1,180
118,191,44082,1,0,0:0:0:0:
364,328,44282,6,0,B|377:269|401:245|401:245|382:220|365:154,1,180
294,113,44882,1,0,0:0:0:0:
192,139,45082,6,0,B|172:91|172:91|172:41,2,101.250003862381
107,347,45882,6,0,L|75:167,1,180
158,204,46482,1,0,0:0:0:0:
405,347,46682,6,0,L|437:167,1,180
354,204,47282,1,0,0:0:0:0:
256,288,47482,6,0,L|256:96,1,180
257,18,48082,1,0,0:0:0:0:
256,148,48282,6,0,L|256:244,1,90
256,352,48682,1,0,0:0:0:0:
76,302,48882,2,0,P|150:246|199:306,1,180
256,384,49923,5,0,0:0:0:0:
256,320,50143,1,0,0:0:0:0:
256,256,50364,1,0,0:0:0:0:
256,192,50584,1,0,0:0:0:0:
256,128,50805,1,0,0:0:0:0:
256,64,51026,1,0,0:0:0:0:
256,0,51246,1,0,0:0:0:0:
256,192,51467,12,0,53011,0:0:0:0:
