osu file format v14

[General]
AudioFilename: audio.mp3
AudioLeadIn: 0
PreviewTime: 75
Countdown: 0
SampleSet: Soft
StackLeniency: 0.7
Mode: 2
LetterboxInBreaks: 0
WidescreenStoryboard: 0

[Editor]
Bookmarks: 13920,26228,33247,47766
DistanceSpacing: 1.8
BeatDivisor: 8
GridSize: 8
TimelineZoom: 2.2

[Metadata]
Title:Last Remote
TitleUnicode:ラストリモート
Artist:R3 Music Box
ArtistUnicode:R3 Music Box
Creator:thx for carry
Version:Unconsciousness
Source:東方地霊殿 ~ Subterranean Animism.
Tags:touhou 11 subterranean animism ラストリモート last remote 古明地 こいし komeiji koishi Stardust Prism Mniam video game instrumental
BeatmapID:3212650
BeatmapSetID:1573417

[Difficulty]
HPDrainRate:4
CircleSize:3.5
OverallDifficulty:7.5
ApproachRate:7.5
SliderMultiplier:2.5
SliderTickRate:2

[Events]
//Background and Video events
0,0,"bg.jpg",0,0
//Break Periods
//Storyboard Layer 0 (Background)
//Storyboard Layer 1 (Fail)
//Storyboard Layer 2 (Pass)
//Storyboard Layer 3 (Foreground)
//Storyboard Layer 4 (Overlay)
//Storyboard Sound Samples

[TimingPoints]
75,769.230769230769,4,2,10,40,1,0
844,-100,4,2,11,40,0,0
1613,769.230769230769,4,2,12,40,1,0
1997,-100,4,2,1,40,0,0
2382,-100,4,2,12,40,0,0
2670,-100,4,2,13,40,0,0
2959,-100,4,2,14,40,0,0
3151,-100,4,2,13,40,0,0
3536,-100,4,2,12,40,0,0
3920,-100,4,2,11,40,0,0
4305,-100,4,2,1,40,0,0
4689,-100,4,2,13,40,0,0
5074,-100,4,2,1,40,0,0
5459,-100,4,2,13,40,0,0
5747,-100,4,2,14,40,0,0
6036,-100,4,2,15,40,0,0
6228,-100,4,2,14,40,0,0
6612,-100,4,2,13,40,0,0
6997,-100,4,2,12,40,0,0
7382,-100,4,2,11,40,0,0
7766,-100,4,2,12,40,0,0
8151,-100,4,2,1,40,0,0
8343,-100,4,2,14,40,0,0
8728,-100,4,2,13,40,0,0
8920,-100,4,2,12,40,0,0
9112,-100,4,2,11,40,0,0
9305,-100,4,2,10,40,0,0
9497,-100,4,2,16,40,0,0
9689,-100,4,2,10,40,0,0
10074,-100,4,2,1,40,0,0
10266,-100,4,2,10,40,0,0
10459,-100,4,2,1,40,0,0
10651,-100,4,2,11,40,0,0
10843,-100,4,2,12,40,0,0
11228,-100,4,2,1,40,0,0
12189,-100,4,2,12,40,0,0
12382,-100,4,2,1,40,0,0
12574,-100,4,2,11,40,0,0
12766,-100,4,2,10,40,0,0
12959,-100,4,2,11,40,0,0
13151,-100,4,2,16,40,0,0
13343,-100,4,2,10,40,0,0
13536,-100,4,2,1,40,0,0
13728,-100,4,2,11,40,0,0
13920,-100,4,2,12,40,0,0
14305,-100,4,2,1,40,0,0
14689,-100,4,2,12,40,0,0
14978,-100,4,2,13,40,0,0
15267,-100,4,2,14,40,0,0
15459,-100,4,2,13,40,0,0
15844,-100,4,2,12,40,0,0
16228,-100,4,2,11,40,0,0
16612,-100,4,2,1,40,0,0
16997,-100,4,2,13,40,0,0
17382,-100,4,2,1,40,0,0
17766,-100,4,2,13,40,0,0
18055,-100,4,2,14,40,0,0
18344,-100,4,2,15,40,0,0
18536,-100,4,2,14,40,0,0
18920,-100,4,2,13,40,0,0
19305,-100,4,2,12,40,0,0
19690,-100,4,2,11,40,0,0
20074,-100,4,2,12,40,0,0
20459,-100,4,2,1,40,0,0
20651,-100,4,2,14,40,0,0
21036,-100,4,2,13,40,0,0
21228,-100,4,2,12,40,0,0
21420,-100,4,2,11,40,0,0
21613,-100,4,2,10,40,0,0
21805,-100,4,2,16,40,0,0
21997,-100,4,2,10,40,0,0
22382,-100,4,2,1,40,0,0
22574,-100,4,2,10,40,0,0
22766,-100,4,2,1,40,0,0
22959,-100,4,2,11,40,0,0
23151,-100,4,2,10,40,0,0
23536,-100,4,2,1,40,0,0
26228,-100,4,2,12,40,0,0
26612,-100,4,2,1,40,0,0
26997,-100,4,2,12,40,0,0
27286,-100,4,2,13,40,0,0
27575,-100,4,2,14,40,0,0
27767,-100,4,2,13,40,0,0
28152,-100,4,2,12,40,0,0
28536,-100,4,2,11,40,0,0
28920,-100,4,2,1,40,0,0
29305,-100,4,2,13,40,0,0
29689,-100,4,2,1,40,0,0
30074,-100,4,2,13,40,0,0
30363,-100,4,2,14,40,0,0
30652,-100,4,2,15,40,0,0
30844,-100,4,2,14,40,0,0
31228,-100,4,2,13,40,0,0
31613,-100,4,2,12,40,0,0
31998,-100,4,2,11,40,0,0
32382,-100,4,2,12,40,0,0
32766,-100,4,2,1,40,0,0
32959,-100,4,2,14,40,0,0
33344,-100,4,2,13,40,0,0
33536,-100,4,2,12,40,0,0
33728,-100,4,2,11,40,0,0
33921,-100,4,2,10,40,0,0
34113,-100,4,2,16,40,0,0
34305,-100,4,2,10,40,0,0
34689,-100,4,2,1,40,0,0
34882,-100,4,2,10,40,0,0
35074,-100,4,2,1,40,0,0
35267,-100,4,2,11,40,0,0
35459,-100,4,2,12,40,0,0
35843,-100,4,2,1,40,0,0
36805,-100,4,2,12,40,0,0
36997,-100,4,2,1,40,0,0
37190,-100,4,2,11,40,0,0
37382,-100,4,2,10,40,0,0
37575,-100,4,2,11,40,0,0
37767,-100,4,2,16,40,0,0
37959,-100,4,2,10,40,0,0
38151,-100,4,2,1,40,0,0
38344,-100,4,2,11,40,0,0
38536,-100,4,2,12,40,0,0
38920,-100,4,2,1,40,0,0
39305,-100,4,2,12,40,0,0
39594,-100,4,2,13,40,0,0
39883,-100,4,2,14,40,0,0
40075,-100,4,2,13,40,0,0
40460,-100,4,2,12,40,0,0
40844,-100,4,2,11,40,0,0
41228,-100,4,2,1,40,0,0
41613,-100,4,2,13,40,0,0
41997,-100,4,2,1,40,0,0
42382,-100,4,2,13,40,0,0
42671,-100,4,2,14,40,0,0
42960,-100,4,2,15,40,0,0
43152,-100,4,2,14,40,0,0
43536,-100,4,2,13,40,0,0
43921,-100,4,2,12,40,0,0
44306,-100,4,2,11,40,0,0
44690,-100,4,2,12,40,0,0
45074,-100,4,2,1,40,0,0
45267,-100,4,2,14,40,0,0
45652,-100,4,2,13,40,0,0
45844,-100,4,2,12,40,0,0
46036,-100,4,2,11,40,0,0
46229,-100,4,2,10,40,0,0
46421,-100,4,2,16,40,0,0
46613,-100,4,2,10,40,0,0
46997,-100,4,2,1,40,0,0
47189,-100,4,2,10,40,0,0
47575,-100,4,2,11,40,0,0
47766,810.810810810811,4,2,1,40,1,0
47766,-100,4,2,10,40,0,0
48171,857.142857142857,4,2,1,36,1,0
48599,888.888888888889,4,2,1,32,1,0
49043,923.076923076923,4,2,1,28,1,0
49504,960,4,2,1,24,1,0
49984,1043.47826086957,4,2,1,20,1,0
50505,1142.85714285714,4,2,1,16,1,0
51076,1500,4,2,1,12,1,0
51263,1600,4,2,1,10,1,0
51463,1714.28571428571,4,2,1,12,1,0

[Colours]
Combo1 : 255,192,0
Combo2 : 128,255,255
Combo3 : 64,128,128
Combo4 : 255,255,128

[HitObjects]
400,272,75,6,0,P|480:192|376:120,1,250,0|0,0:0|0:0,0:0:0:0:
152,312,1613,6,0,L|152:176,1,125,2|0,0:0|0:0,0:0:0:0:
432,192,2382,1,2,0:0:0:0:
336,192,2670,1,2,0:0:0:0:
240,192,2959,1,2,0:0:0:0:
56,192,3151,6,0,L|181:192,1,125,2|2,0:0|0:0,0:0:0:0:
464,104,3920,2,0,L|336:104,1,125,2|0,0:0|0:0,0:0:0:0:
56,248,4689,6,0,L|56:112,1,125,2|0,0:0|0:0,0:0:0:0:
336,192,5459,1,2,0:0:0:0:
240,192,5747,1,2,0:0:0:0:
336,192,6036,1,2,0:0:0:0:
144,88,6228,6,0,L|19:88,1,125,2|2,0:0|0:0,0:0:0:0:
304,168,6997,2,0,L|429:168,1,125,2|2,0:0|0:0,0:0:0:0:
144,280,7766,6,0,L|144:128,1,125,2|0,0:0|0:0,0:0:0:0:
336,160,8343,1,2,0:0:0:0:
176,192,8728,5,2,0:0:0:0:
112,192,8920,1,2,0:0:0:0:
104,192,9112,1,2,0:0:0:0:
184,104,9305,1,2,0:0:0:0:
104,192,9497,1,2,0:0:0:0:
296,192,9689,5,2,0:0:0:0:
428,192,10074,1,0,0:0:0:0:
240,192,10266,1,2,0:0:0:0:
167,192,10458,1,0,0:0:0:0:
224,192,10651,1,2,0:0:0:0:
480,192,10843,5,2,0:0:0:0:
433,304,11227,1,0,0:0:0:0:
321,351,11612,1,0,0:0:0:0:
448,304,11997,1,0,0:0:0:0:
256,168,12189,5,2,0:0:0:0:
216,168,12382,1,0,0:0:0:0:
304,168,12574,1,2,0:0:0:0:
392,168,12766,1,2,0:0:0:0:
200,240,12959,5,0,0:0:0:0:
112,240,13151,1,0,0:0:0:0:
24,240,13343,1,0,0:0:0:0:
24,240,13536,1,0,0:0:0:0:
112,240,13728,1,2,0:0:0:0:
376,192,13920,6,0,L|376:328,1,125,2|0,0:0|0:0,0:0:0:0:
96,288,14689,1,2,0:0:0:0:
32,288,14978,1,2,0:0:0:0:
128,288,15266,1,2,0:0:0:0:
320,248,15459,6,0,L|328:120,1,125,2|2,0:0|0:0,0:0:0:0:
40,80,16228,2,0,L|32:216,1,125,2|0,0:0|0:0,0:0:0:0:
320,192,16997,6,0,L|195:192,1,125,2|0,0:0|0:0,0:0:0:0:
477,288,17766,1,2,0:0:0:0:
480,208,18055,1,2,0:0:0:0:
384,208,18343,1,2,0:0:0:0:
192,248,18536,6,0,L|184:120,1,125,2|2,0:0|0:0,0:0:0:0:
472,80,19305,2,0,L|480:216,1,125,2|2,0:0|0:0,0:0:0:0:
192,280,20074,6,0,L|192:144,1,125,2|0,0:0|0:0,0:0:0:0:
384,160,20651,1,2,0:0:0:0:
224,192,21036,5,2,0:0:0:0:
160,192,21228,1,2,0:0:0:0:
152,192,21420,1,2,0:0:0:0:
224,104,21613,1,2,0:0:0:0:
152,192,21805,1,2,0:0:0:0:
344,192,21997,5,2,0:0:0:0:
476,192,22382,1,0,0:0:0:0:
288,192,22574,1,2,0:0:0:0:
215,192,22766,1,0,0:0:0:0:
224,192,22959,1,2,0:0:0:0:
480,272,23151,6,0,L|384:352,1,125,2|0,0:0|0:0,0:0:0:0:
221,312,23920,2,0,L|317:232,1,125,0|0,0:0|0:0,0:0:0:0:
480,192,24689,5,0,0:0:0:0:
355,192,25074,1,0,0:0:0:0:
355,112,25459,1,0,0:0:0:0:
480,192,25843,1,0,0:0:0:0:
32,192,26228,6,0,L|176:192,1,125,2|0,0:0|0:0,0:0:0:0:
440,192,26997,1,2,0:0:0:0:
344,192,27286,1,2,0:0:0:0:
208,192,27574,1,2,0:0:0:0:
400,192,27766,6,0,L|384:320,1,125,2|2,0:0|0:0,0:0:0:0:
104,192,28536,2,0,L|120:320,1,125,2|0,0:0|0:0,0:0:0:0:
400,240,29305,6,0,B|462:240|462:240|390:240,1,125,2|0,0:0|0:0,0:0:0:0:
120,296,30074,1,2,0:0:0:0:
24,296,30363,1,2,0:0:0:0:
120,296,30651,1,2,0:0:0:0:
312,288,30843,6,0,L|464:288,1,125,2|2,0:0|0:0,0:0:0:0:
160,120,31612,2,0,L|176:248,1,125,2|2,0:0|0:0,0:0:0:0:
464,272,32382,6,0,L|464:144,1,125,2|0,0:0|0:0,0:0:0:0:
272,144,32959,1,2,0:0:0:0:
432,192,33343,5,2,0:0:0:0:
464,192,33536,1,2,0:0:0:0:
432,192,33728,1,2,0:0:0:0:
352,192,33920,1,2,0:0:0:0:
432,192,34112,1,2,0:0:0:0:
240,192,34305,5,2,0:0:0:0:
368,256,34689,1,0,0:0:0:0:
176,208,34882,1,2,0:0:0:0:
144,208,35074,1,0,0:0:0:0:
208,208,35266,1,2,0:0:0:0:
480,192,35459,5,2,0:0:0:0:
433,304,35843,1,0,0:0:0:0:
321,351,36228,1,0,0:0:0:0:
448,304,36613,1,0,0:0:0:0:
256,168,36805,5,2,0:0:0:0:
216,168,36998,1,0,0:0:0:0:
304,168,37190,1,2,0:0:0:0:
392,168,37382,1,2,0:0:0:0:
200,240,37575,5,2,0:0:0:0:
112,240,37767,1,2,0:0:0:0:
24,240,37959,1,2,0:0:0:0:
24,240,38152,1,0,0:0:0:0:
112,240,38344,1,2,0:0:0:0:
400,288,38536,6,0,L|400:144,1,125,2|0,0:0|0:0,0:0:0:0:
112,128,39305,1,2,0:0:0:0:
208,128,39593,1,2,0:0:0:0:
112,208,39882,1,2,0:0:0:0:
304,88,40074,6,0,L|440:88,1,125,2|2,0:0|0:0,0:0:0:0:
144,152,40843,2,0,L|19:152,1,125,2|0,0:0|0:0,0:0:0:0:
304,248,41612,6,0,B|366:248|366:248|294:248,1,125,2|0,0:0|0:0,0:0:0:0:
24,96,42382,1,2,0:0:0:0:
120,96,42670,1,2,0:0:0:0:
256,96,42959,1,2,0:0:0:0:
448,48,43151,6,0,L|312:48,1,125,2|2,0:0|0:0,0:0:0:0:
40,88,43920,2,0,L|168:88,1,125,2|2,0:0|0:0,0:0:0:0:
464,200,44689,6,0,P|442:110|408:80,1,125,2|0,0:0|0:0,0:0:0:0:
232,88,45266,1,2,0:0:0:0:
392,112,45651,5,2,0:0:0:0:
424,112,45844,1,2,0:0:0:0:
392,112,46036,1,2,0:0:0:0:
312,112,46228,1,2,0:0:0:0:
392,112,46420,1,2,0:0:0:0:
200,112,46613,5,2,0:0:0:0:
328,112,46997,1,0,0:0:0:0:
200,112,47189,2,0,B|136:112|136:112|200:112,1,125,2|2,0:0|0:0,0:0:0:0:
464,112,47766,5,2,0:0:0:0:
256,192,48171,12,0,51463,0:0:0:0:
