osu file format v14

[General]
AudioFilename: audio.mp3
AudioLeadIn: 0
PreviewTime: 75
Countdown: 0
SampleSet: Soft
StackLeniency: 0.7
Mode: 2
LetterboxInBreaks: 0
WidescreenStoryboard: 1

[Editor]
Bookmarks: 13920,26228,47766
DistanceSpacing: 1
BeatDivisor: 4
GridSize: 16
TimelineZoom: 2.2

[Metadata]
Title:Last Remote
TitleUnicode:ラストリモート
Artist:R3 Music Box
ArtistUnicode:R3 Music Box
Creator:thx for carry
Version:Stardust Prism's Salad
Source:東方地霊殿 ~ Subterranean Animism.
Tags:touhou 11 subterranean animism ラストリモート last remote 古明地 こいし komeiji koishi Stardust Prism Mniam video game instrumental
BeatmapID:3236240
BeatmapSetID:1573417

[Difficulty]
HPDrainRate:3
CircleSize:3
OverallDifficulty:6.5
ApproachRate:6.5
SliderMultiplier:3
SliderTickRate:2

[Events]
//Background and Video events
0,0,"bg.jpg",0,0
//Break Periods
//Storyboard Layer 0 (Background)
//Storyboard Layer 1 (Fail)
//Storyboard Layer 2 (Pass)
//Storyboard Layer 3 (Foreground)
//Storyboard Layer 4 (Overlay)
//Storyboard Sound Samples

[TimingPoints]
75,769.230769230769,4,2,10,40,1,0
844,-100,4,2,11,40,0,0
1613,769.230769230769,4,2,12,40,1,0
1997,-100,4,2,1,40,0,0
2382,-100,4,2,12,40,0,0
2670,-100,4,2,13,40,0,0
2959,-100,4,2,14,40,0,0
3151,-100,4,2,13,40,0,0
3536,-100,4,2,12,40,0,0
3920,-100,4,2,11,40,0,0
4305,-100,4,2,1,40,0,0
4689,-100,4,2,13,40,0,0
5074,-100,4,2,1,40,0,0
5459,-100,4,2,13,40,0,0
5747,-100,4,2,14,40,0,0
6036,-100,4,2,15,40,0,0
6228,-100,4,2,14,40,0,0
6612,-100,4,2,13,40,0,0
6997,-100,4,2,12,40,0,0
7382,-100,4,2,11,40,0,0
7766,-100,4,2,12,40,0,0
8151,-100,4,2,1,40,0,0
8343,-100,4,2,14,40,0,0
8728,-100,4,2,13,40,0,0
8920,-100,4,2,12,40,0,0
9112,-100,4,2,11,40,0,0
9305,-100,4,2,10,40,0,0
9497,-100,4,2,16,40,0,0
9689,-100,4,2,10,40,0,0
10074,-100,4,2,1,40,0,0
10266,-100,4,2,10,40,0,0
10651,-100,4,2,11,40,0,0
10843,-100,4,2,12,40,0,0
11228,-100,4,2,1,40,0,0
12189,-100,4,2,12,40,0,0
12574,-100,4,2,11,40,0,0
12766,-100,4,2,10,40,0,0
12959,-100,4,2,11,40,0,0
13151,-100,4,2,16,40,0,0
13343,-100,4,2,10,40,0,0
13728,-100,4,2,11,40,0,0
13920,-100,4,2,12,40,0,0
14305,-100,4,2,1,40,0,0
14689,-100,4,2,12,40,0,0
14978,-100,4,2,13,40,0,0
15267,-100,4,2,14,40,0,0
15459,-100,4,2,13,40,0,0
15844,-100,4,2,12,40,0,0
16228,-100,4,2,11,40,0,0
16612,-100,4,2,1,40,0,0
16997,-100,4,2,13,40,0,0
17382,-100,4,2,1,40,0,0
17766,-100,4,2,13,40,0,0
18055,-100,4,2,14,40,0,0
18344,-100,4,2,15,40,0,0
18536,-100,4,2,14,40,0,0
18920,-100,4,2,13,40,0,0
19305,-100,4,2,12,40,0,0
19690,-100,4,2,11,40,0,0
20074,-100,4,2,12,40,0,0
20459,-100,4,2,1,40,0,0
20651,-100,4,2,14,40,0,0
21036,-100,4,2,13,40,0,0
21228,-100,4,2,12,40,0,0
21420,-100,4,2,11,40,0,0
21613,-100,4,2,10,40,0,0
21805,-100,4,2,16,40,0,0
21997,-100,4,2,10,40,0,0
22382,-100,4,2,1,40,0,0
22574,-100,4,2,10,40,0,0
22959,-100,4,2,11,40,0,0
23151,-100,4,2,10,40,0,0
23536,-100,4,2,1,40,0,0
26228,-100,4,2,12,40,0,0
26612,-100,4,2,1,40,0,0
26997,-100,4,2,12,40,0,0
27286,-100,4,2,13,40,0,0
27575,-100,4,2,14,40,0,0
27767,-100,4,2,13,40,0,0
28152,-100,4,2,12,40,0,0
28536,-100,4,2,11,40,0,0
28920,-100,4,2,1,40,0,0
29305,-100,4,2,13,40,0,0
29689,-100,4,2,1,40,0,0
30074,-100,4,2,13,40,0,0
30363,-100,4,2,14,40,0,0
30652,-100,4,2,15,40,0,0
30844,-100,4,2,14,40,0,0
31228,-100,4,2,13,40,0,0
31613,-100,4,2,12,40,0,0
31998,-100,4,2,11,40,0,0
32382,-100,4,2,12,40,0,0
32766,-100,4,2,1,40,0,0
32959,-100,4,2,14,40,0,0
33344,-100,4,2,13,40,0,0
33536,-100,4,2,12,40,0,0
33728,-100,4,2,11,40,0,0
33921,-100,4,2,10,40,0,0
34113,-100,4,2,16,40,0,0
34305,-100,4,2,10,40,0,0
34689,-100,4,2,1,40,0,0
34882,-100,4,2,10,40,0,0
35267,-100,4,2,11,40,0,0
35459,-100,4,2,12,40,0,0
35843,-100,4,2,1,40,0,0
36805,-100,4,2,12,40,0,0
37190,-100,4,2,11,40,0,0
37382,-100,4,2,10,40,0,0
37575,-100,4,2,11,40,0,0
37767,-100,4,2,16,40,0,0
37959,-100,4,2,10,40,0,0
38344,-100,4,2,11,40,0,0
38536,-100,4,2,12,40,0,0
38920,-100,4,2,1,40,0,0
39305,-100,4,2,12,40,0,0
39594,-100,4,2,13,40,0,0
39883,-100,4,2,14,40,0,0
40075,-100,4,2,13,40,0,0
40460,-100,4,2,12,40,0,0
40844,-100,4,2,11,40,0,0
41228,-100,4,2,1,40,0,0
41613,-100,4,2,13,40,0,0
41997,-100,4,2,1,40,0,0
42382,-100,4,2,13,40,0,0
42671,-100,4,2,14,40,0,0
42960,-100,4,2,15,40,0,0
43152,-100,4,2,14,40,0,0
43536,-100,4,2,13,40,0,0
43921,-100,4,2,12,40,0,0
44306,-100,4,2,11,40,0,0
44690,-100,4,2,12,40,0,0
45074,-100,4,2,1,40,0,0
45267,-100,4,2,14,40,0,0
45652,-100,4,2,13,40,0,0
45844,-100,4,2,12,40,0,0
46036,-100,4,2,11,40,0,0
46229,-100,4,2,10,40,0,0
46421,-100,4,2,16,40,0,0
46613,-100,4,2,10,40,0,0
46997,-100,4,2,1,40,0,0
47189,-100,4,2,10,40,0,0
47575,-100,4,2,11,40,0,0
47766,810.810810810811,4,2,1,40,1,0
47766,-100,4,2,10,40,0,0
48171,857.142857142857,4,2,1,36,1,0
48599,888.888888888889,4,2,1,32,1,0
49043,923.076923076923,4,2,1,28,1,0
49504,960,4,2,1,24,1,0
49984,1043.47826086957,4,2,1,20,1,0
50505,1142.85714285714,4,2,1,16,1,0
51076,1500,4,2,1,12,1,0
51263,1600,4,2,1,10,1,0
51463,1714.28571428571,4,2,1,12,1,0

[Colours]
Combo1 : 255,192,0
Combo2 : 128,255,255
Combo3 : 64,128,128
Combo4 : 255,255,128

[HitObjects]
382,319,75,6,0,P|475:258|369:151,1,300,0|0,0:0|0:0,0:0:0:0:
67,281,1613,6,0,P|104:180|193:154,1,150,2|0,0:0|0:0,0:0:0:0:
297,252,2382,2,0,L|157:252,2,112.5,2|2|2,0:0|0:0|0:0,0:0:0:0:
242,237,3151,6,0,L|82:240,1,150,2|2,0:0|0:0,0:0:0:0:
257,166,3920,2,0,L|419:166,1,150,2|0,0:0|0:0,0:0:0:0:
122,289,4689,6,0,L|122:121,1,150,2|0,0:0|0:0,0:0:0:0:
280,91,5459,2,0,L|400:91,2,112.5,2|2|2,0:0|0:0|0:0,0:0:0:0:
198,188,6228,6,0,L|369:188,1,150,2|2,0:0|0:0,0:0:0:0:
192,167,6997,2,0,L|14:167,1,150,2|2,0:0|0:0,0:0:0:0:
328,323,7766,6,0,P|375:288|315:223,1,150,2|0,0:0|0:0,0:0:0:0:
252,218,8343,2,0,L|72:218,1,150,2|2,0:0|0:0,0:0:0:0:
196,171,8920,2,0,L|280:171,1,75,2|2,0:0|0:0,0:0:0:0:
190,128,9305,6,0,L|35:128,1,150,2|2,0:0|0:0,0:0:0:0:
216,263,10074,1,0,0:0:0:0:
217,197,10266,2,0,L|47:197,1,150,2|2,0:0|0:0,0:0:0:0:
209,187,10843,6,0,L|211:19,1,150,2|0,0:0|0:0,0:0:0:0:
381,286,11612,2,0,L|381:124,1,150,0|0,0:0|0:0,0:0:0:0:
296,137,12189,6,0,L|446:139,1,150,2|2,0:0|0:0,0:0:0:0:
350,200,12766,2,0,L|171:199,1,150,2|2,0:0|0:0,0:0:0:0:
283,168,13343,2,0,L|451:167,1,150,2|2,0:0|0:0,0:0:0:0:
252,221,13920,6,0,L|81:221,1,150,2|0,0:0|0:0,0:0:0:0:
252,218,14689,2,0,L|127:218,2,112.5,2|2|2,0:0|0:0|0:0,0:0:0:0:
170,215,15459,6,0,L|-3:216,1,150,2|2,0:0|0:0,0:0:0:0:
193,287,16228,2,0,L|378:287,1,150,2|0,0:0|0:0,0:0:0:0:
58,259,16997,6,0,L|57:94,1,150,2|0,0:0|0:0,0:0:0:0:
210,279,17766,2,0,L|93:279,2,112.5,2|2|2,0:0|0:0|0:0,0:0:0:0:
286,230,18536,6,0,L|123:231,1,150,2|2,0:0|0:0,0:0:0:0:
304,188,19305,2,0,L|304:32,1,150,2|2,0:0|0:0,0:0:0:0:
18,261,20074,6,0,P|65:222|156:200,1,150,2|0,0:0|0:0,0:0:0:0:
240,144,20651,2,0,L|90:143,1,150,2|2,0:0|0:0,0:0:0:0:
170,140,21228,2,0,L|255:139,1,75,2|2,0:0|0:0,0:0:0:0:
241,75,21612,6,0,L|47:75,1,150,2|2,0:0|0:0,0:0:0:0:
275,265,22382,1,0,0:0:0:0:
276,183,22574,2,0,L|91:184,1,150,2|2,0:0|0:0,0:0:0:0:
304,306,23151,6,0,L|481:306,1,150,2|0,0:0|0:0,0:0:0:0:
284,251,23920,2,0,L|284:83,1,150,0|0,0:0|0:0,0:0:0:0:
119,256,24689,6,0,L|118:84,1,150,0|0,0:0|0:0,0:0:0:0:
293,115,25459,2,0,L|452:116,1,150,0|0,0:0|0:0,0:0:0:0:
143,355,26228,6,0,L|143:150,1,150,2|0,0:0|0:0,0:0:0:0:
298,154,26997,2,0,L|173:154,2,112.5,2|2|2,0:0|0:0|0:0,0:0:0:0:
382,153,27766,6,0,P|449:82|417:45,1,150,2|2,0:0|0:0,0:0:0:0:
255,53,28536,2,0,L|74:53,1,150,2|0,0:0|0:0,0:0:0:0:
394,305,29305,6,0,L|394:140,1,150,2|0,0:0|0:0,0:0:0:0:
213,148,30074,2,0,L|88:148,2,112.5,2|2|2,0:0|0:0|0:0,0:0:0:0:
298,116,30843,6,0,L|113:116,1,150,2|2,0:0|0:0,0:0:0:0:
309,216,31612,2,0,L|508:216,1,150,2|2,0:0|0:0,0:0:0:0:
159,258,32382,6,0,L|159:82,1,150,2|0,0:0|0:0,0:0:0:0:
243,80,32959,2,0,L|424:80,1,150,2|2,0:0|0:0,0:0:0:0:
426,147,33536,1,2,0:0:0:0:
365,215,33728,1,2,0:0:0:0:
274,233,33920,6,0,L|82:232,1,150,2|2,0:0|0:0,0:0:0:0:
127,176,34689,1,0,0:0:0:0:
222,173,34882,2,0,L|387:173,1,150,2|2,0:0|0:0,0:0:0:0:
190,309,35459,6,0,L|190:145,1,150,2|0,0:0|0:0,0:0:0:0:
359,253,36228,2,0,L|359:75,1,150,0|0,0:0|0:0,0:0:0:0:
264,85,36805,6,0,L|424:85,1,150,2|2,0:0|0:0,0:0:0:0:
319,191,37382,2,0,L|141:190,1,150,2|2,0:0|0:0,0:0:0:0:
90,234,37959,2,0,L|253:235,1,150,2|2,0:0|0:0,0:0:0:0:
425,237,38536,6,0,L|425:46,1,150,2|0,0:0|0:0,0:0:0:0:
265,160,39305,2,0,L|127:160,2,112.5,2|2|2,0:0|0:0|0:0,0:0:0:0:
350,141,40074,6,0,P|257:81|206:79,1,150,2|2,0:0|0:0,0:0:0:0:
386,294,40843,2,0,L|386:131,1,150,2|0,0:0|0:0,0:0:0:0:
100,241,41612,6,0,L|259:241,1,150,2|0,0:0|0:0,0:0:0:0:
415,162,42382,2,0,L|289:162,2,112.5,2|2|2,0:0|0:0|0:0,0:0:0:0:
325,110,43151,6,0,L|144:110,1,150,2|2,0:0|0:0,0:0:0:0:
341,246,43920,2,0,L|493:246,1,150,2|2,0:0|0:0,0:0:0:0:
204,234,44689,6,0,L|43:235,1,150,2|0,0:0|0:0,0:0:0:0:
137,195,45266,2,0,L|295:195,1,150,2|2,0:0|0:0,0:0:0:0:
369,158,45843,1,2,0:0:0:0:
369,95,46036,1,2,0:0:0:0:
277,77,46228,6,0,L|92:76,1,150,2|2,0:0|0:0,0:0:0:0:
311,129,46997,1,0,0:0:0:0:
310,190,47189,2,0,L|134:190,1,150,2|2,0:0|0:0,0:0:0:0:
333,275,47766,5,2,0:0:0:0:
256,192,48171,12,0,51463,0:0:0:0:
