osu file format v14

[General]
AudioFilename: audio.mp3
AudioLeadIn: 0
PreviewTime: 0
Countdown: 0
SampleSet: Normal
StackLeniency: 0.7
Mode: 3
LetterboxInBreaks: 0
SpecialStyle: 0
WidescreenStoryboard: 0

[Editor]
DistanceSpacing: 1.8
BeatDivisor: 8
GridSize: 32
TimelineZoom: 1.2

[Metadata]
Title:Last Remote
TitleUnicode:ラストリモート
Artist:R3 Music Box
ArtistUnicode:R3 Music Box
Creator:My Angel Koishi
Version:Easy
Source:東方地霊殿 ~ Subterranean Animism.
Tags:touhou 11 subterranean animism ラストリモート last remote 古明地 こいし komeiji koishi sar7 famoss
BeatmapID:1870233
BeatmapSetID:895042

[Difficulty]
HPDrainRate:7
CircleSize:7
OverallDifficulty:7
ApproachRate:5
SliderMultiplier:1.4
SliderTickRate:1

[Events]
//Background and Video events
0,0,"last remote.png",0,0
//Break Periods
//Storyboard Layer 0 (Background)
//Storyboard Layer 1 (Fail)
//Storyboard Layer 2 (Pass)
//Storyboard Layer 3 (Foreground)
//Storyboard Sound Samples
Sample,1613,0,"A#6S_Bb6S.wav",40
Sample,2382,0,"A#6S_Bb6S_s.wav",40
Sample,2670,0,"C7S_s.wav",40
Sample,2959,0,"D7S_s.wav",40
Sample,3151,0,"C7S_s.wav",40
Sample,3536,0,"A#6S_Bb6S_s.wav",40
Sample,3920,0,"A6S.wav",40
Sample,4689,0,"C7S.wav",40
Sample,5459,0,"C7S_s.wav",40
Sample,5747,0,"D7S_s.wav",40
Sample,6036,0,"D#7S_Eb7S_s.wav",40
Sample,6228,0,"D7S_s.wav",40
Sample,6612,0,"A6S_s.wav",40
Sample,6612,0,"C7S_s.wav",40
Sample,6997,0,"G6S_s.wav",40
Sample,6997,0,"A#6S_Bb6S_s.wav",40
Sample,7382,0,"F6S_s.wav",40
Sample,7382,0,"A6S_s.wav",40
Sample,7766,0,"G6S.wav",40
Sample,7766,0,"A#6S_Bb6S.wav",40
Sample,8343,0,"A#6S_Bb6S_s.wav",40
Sample,8343,0,"D7S_s.wav",40
Sample,8728,0,"A6S_s.wav",40
Sample,8728,0,"C7S_s.wav",40
Sample,8920,0,"G6S_s.wav",40
Sample,8920,0,"A#6S_Bb6S_s.wav",40
Sample,9112,0,"F6S_s.wav",40
Sample,9112,0,"A6S_s.wav",40
Sample,9305,0,"D6S_s.wav",40
Sample,9305,0,"F6S_s.wav",40
Sample,9497,0,"A#5S_Bb5S_s.wav",40
Sample,9497,0,"D6S_s.wav",40
Sample,9689,0,"D6S.wav",40
Sample,9689,0,"F6S.wav",40
Sample,10266,0,"D6S_s.wav",40
Sample,10266,0,"G6S_s.wav",40
Sample,10651,0,"F6S_s.wav",40
Sample,10843,0,"D6S.wav",40
Sample,10843,0,"A#6S_Bb6S.wav",40
Sample,12189,0,"G6S_s.wav",40
Sample,12189,0,"A#6S_Bb6S_s.wav",40
Sample,12574,0,"F6S_s.wav",40
Sample,12574,0,"A6S_s.wav",40
Sample,12766,0,"D6S_s.wav",40
Sample,12766,0,"G6S_s.wav",40
Sample,12959,0,"F6S_s.wav",40
Sample,12959,0,"A6S_s.wav",40
Sample,13151,0,"A#5S_Bb5S_s.wav",40
Sample,13151,0,"D6S_s.wav",40
Sample,13343,0,"D6S_s.wav",40
Sample,13343,0,"F6S_s.wav",40
Sample,13728,0,"F6S_s.wav",40
Sample,13728,0,"A6S_s.wav",40
Sample,13920,0,"A#6S_Bb6S.wav",40
Sample,14689,0,"A#6S_Bb6S_s.wav",40
Sample,14978,0,"C7S_s.wav",40
Sample,15266,0,"D7S_s.wav",40
Sample,15459,0,"C7S_s.wav",40
Sample,15843,0,"A#6S_Bb6S_s.wav",40
Sample,16228,0,"A6S.wav",40
Sample,16997,0,"C7S.wav",40
Sample,17766,0,"C7S_s.wav",40
Sample,18055,0,"D7S_s.wav",40
Sample,18343,0,"D#7S_Eb7S_s.wav",40
Sample,18536,0,"D7S_s.wav",40
Sample,18920,0,"A6S_s.wav",40
Sample,18920,0,"C7S_s.wav",40
Sample,19305,0,"G6S_s.wav",40
Sample,19305,0,"A#6S_Bb6S_s.wav",40
Sample,19689,0,"F6S_s.wav",40
Sample,19689,0,"A6S_s.wav",40
Sample,20074,0,"G6S.wav",40
Sample,20074,0,"A#6S_Bb6S.wav",40
Sample,20651,0,"A#6S_Bb6S_s.wav",40
Sample,20651,0,"D7S_s.wav",40
Sample,21036,0,"A6S_s.wav",40
Sample,21036,0,"C7S_s.wav",40
Sample,21228,0,"G6S_s.wav",40
Sample,21228,0,"A#6S_Bb6S_s.wav",40
Sample,21420,0,"F6S_s.wav",40
Sample,21420,0,"A6S_s.wav",40
Sample,21612,0,"D6S_s.wav",40
Sample,21612,0,"F6S_s.wav",40
Sample,21805,0,"A#5S_Bb5S_s.wav",40
Sample,21805,0,"D6S_s.wav",40
Sample,21997,0,"D6S.wav",40
Sample,21997,0,"F6S.wav",40
Sample,22574,0,"D6S_s.wav",40
Sample,22574,0,"G6S_s.wav",40
Sample,22959,0,"F6S_s.wav",40
Sample,23151,0,"D6S.wav",40
Sample,23151,0,"G5S.wav",40
Sample,24689,0,"G6S.wav",70
Sample,26228,0,"A#6S_Bb6S.wav",40
Sample,26997,0,"A#6S_Bb6S_s.wav",40
Sample,27286,0,"C7S_s.wav",40
Sample,27574,0,"D7S_s.wav",40
Sample,27766,0,"C7S_s.wav",40
Sample,28151,0,"A#6S_Bb6S_s.wav",40
Sample,28536,0,"A6S.wav",40
Sample,29305,0,"C7S.wav",40
Sample,30074,0,"C7S_s.wav",40
Sample,30362,0,"D7S_s.wav",40
Sample,30651,0,"D#7S_Eb7S_s.wav",40
Sample,30843,0,"D7S_s.wav",40
Sample,31228,0,"A6S_s.wav",40
Sample,31228,0,"C7S_s.wav",40
Sample,31612,0,"G6S_s.wav",40
Sample,31612,0,"A#6S_Bb6S_s.wav",40
Sample,31997,0,"F6S_s.wav",40
Sample,31997,0,"A6S_s.wav",40
Sample,32382,0,"G6S.wav",40
Sample,32382,0,"A#6S_Bb6S.wav",40
Sample,32959,0,"A#6S_Bb6S_s.wav",40
Sample,32959,0,"D7S_s.wav",40
Sample,33343,0,"A6S_s.wav",40
Sample,33343,0,"C7S_s.wav",40
Sample,33536,0,"G6S_s.wav",40
Sample,33536,0,"A#6S_Bb6S_s.wav",40
Sample,33728,0,"F6S_s.wav",40
Sample,33728,0,"A6S_s.wav",40
Sample,33920,0,"D6S_s.wav",40
Sample,33920,0,"F6S_s.wav",40
Sample,34112,0,"A#5S_Bb5S_s.wav",40
Sample,34112,0,"D6S_s.wav",40
Sample,34305,0,"D6S.wav",40
Sample,34305,0,"F6S.wav",40
Sample,34882,0,"D6S_s.wav",40
Sample,34882,0,"G6S_s.wav",40
Sample,35266,0,"F6S_s.wav",40
Sample,35459,0,"D6S.wav",40
Sample,35459,0,"A#6S_Bb6S.wav",40
Sample,36805,0,"G6S_s.wav",40
Sample,36805,0,"A#6S_Bb6S_s.wav",40
Sample,37189,0,"F6S_s.wav",40
Sample,37189,0,"A6S_s.wav",40
Sample,37382,0,"D6S_s.wav",40
Sample,37382,0,"G6S_s.wav",40
Sample,37574,0,"F6S_s.wav",40
Sample,37574,0,"A6S_s.wav",40
Sample,37766,0,"A#5S_Bb5S_s.wav",40
Sample,37766,0,"D6S_s.wav",40
Sample,37959,0,"D6S_s.wav",40
Sample,37959,0,"F6S_s.wav",40
Sample,38343,0,"F6S_s.wav",40
Sample,38343,0,"A6S_s.wav",40
Sample,38536,0,"A#6S_Bb6S.wav",40
Sample,39305,0,"A#6S_Bb6S_s.wav",40
Sample,39593,0,"C7S_s.wav",40
Sample,39882,0,"D7S_s.wav",40
Sample,40074,0,"C7S_s.wav",40
Sample,40459,0,"A#6S_Bb6S_s.wav",40
Sample,40843,0,"A6S.wav",40
Sample,41612,0,"C7S.wav",40
Sample,42382,0,"C7S_s.wav",40
Sample,42670,0,"D7S_s.wav",40
Sample,42959,0,"D#7S_Eb7S_s.wav",40
Sample,43151,0,"D7S_s.wav",40
Sample,43536,0,"A6S_s.wav",40
Sample,43536,0,"C7S_s.wav",40
Sample,43920,0,"G6S_s.wav",40
Sample,43920,0,"A#6S_Bb6S_s.wav",40
Sample,44305,0,"F6S_s.wav",40
Sample,44305,0,"A6S_s.wav",40
Sample,44689,0,"G6S.wav",40
Sample,44689,0,"A#6S_Bb6S.wav",40
Sample,45266,0,"A#6S_Bb6S_s.wav",40
Sample,45266,0,"D7S_s.wav",40
Sample,45651,0,"A6S_s.wav",40
Sample,45651,0,"C7S_s.wav",40
Sample,45843,0,"G6S_s.wav",40
Sample,45843,0,"A#6S_Bb6S_s.wav",40
Sample,46036,0,"F6S_s.wav",40
Sample,46036,0,"A6S_s.wav",40
Sample,46228,0,"D6S_s.wav",40
Sample,46228,0,"F6S_s.wav",40
Sample,46420,0,"A#5S_Bb5S_s.wav",40
Sample,46420,0,"D6S_s.wav",40
Sample,46612,0,"D6S.wav",40
Sample,46612,0,"F6S.wav",40
Sample,47189,0,"D6S_s.wav",40
Sample,47189,0,"G6S_s.wav",40
Sample,47574,0,"F6S_s.wav",40
Sample,47766,0,"D6S.wav",40
Sample,47766,0,"G5S.wav",40
Sample,48171,0,"A#5S_Bb5S.wav",40
Sample,48599,0,"G6S.wav",40
Sample,49043,0,"D6S.wav",40
Sample,49504,0,"G6S.wav",40
Sample,49984,0,"A#6S_Bb6S.wav",40
Sample,50505,0,"D7S.wav",40
Sample,51076,0,"A#6S_Bb6S_s.wav",40
Sample,51263,0,"D7S_s.wav",40
Sample,51463,0,"G7S.wav",40

[TimingPoints]
75,769.230769230769,4,1,1,50,1,0
1613,769.230769230769,4,1,1,50,1,0
47766,810.810810810811,4,1,1,50,1,0
47766,-95.2380952380952,4,1,1,50,0,0
48171,857.142857142857,4,1,1,47,1,0
48171,-90.0900900900901,4,1,1,47,0,0
48599,888.888888888889,4,1,1,44,1,0
48599,-86.2068965517241,4,1,1,44,0,0
49043,923.076923076923,4,1,1,41,1,0
49043,-83.3333333333333,4,1,1,41,0,0
49504,960,4,1,1,38,1,0
49504,-80,4,1,1,38,0,0
49984,1043.47826086957,4,1,1,35,1,0
49984,-73.5294117647059,4,1,1,35,0,0
50505,1142.85714285714,4,1,1,32,1,0
50505,-67.1140939597315,4,1,1,32,0,0
51076,1500,4,1,1,29,1,0
51076,-51.2820512820513,4,1,1,29,0,0
51263,1600,4,1,1,26,1,0
51263,-48.0769230769231,4,1,1,26,0,0
51463,1714.28571428571,4,1,1,23,1,0
51463,-44.8430493273543,4,1,1,23,0,0

[HitObjects]
36,192,75,5,0,0:0:0:40:G6S.wav
182,192,844,1,0,0:0:0:40:A6S.wav
329,192,1613,1,0,0:0:0:20:A#5S_Bb5S.wav
109,192,2382,1,0,0:0:0:20:G6S_s.wav
256,192,2670,1,0,0:0:0:20:A6S_s.wav
402,192,2959,1,0,0:0:0:20:A#6S_Bb6S_s.wav
475,192,3151,1,0,0:0:0:20:C6S_s.wav
329,192,3536,1,0,0:0:0:20:G6S_s.wav
182,192,3920,1,0,0:0:0:20:F6S.wav
256,192,4689,1,0,0:0:0:20:A6S.wav
182,192,5459,1,0,0:0:0:20:A6S_s.wav
329,192,5747,1,0,0:0:0:20:A#6S_Bb6S_s.wav
475,192,6036,1,0,0:0:0:20:C7S_s.wav
402,192,6228,1,0,0:0:0:20:D6S_s.wav
256,192,6612,1,0,0:0:0:20:C6S_s.wav
109,192,6997,1,0,0:0:0:20:A#5S_Bb5S_s.wav
36,192,7382,1,0,0:0:0:20:A5S_s.wav
182,192,7766,1,0,0:0:0:20:A#5S_Bb5S.wav
475,192,8343,1,0,0:0:0:20:D6S_s.wav
329,192,8728,1,0,0:0:0:20:C6S_s.wav
182,192,8920,1,0,0:0:0:20:A#5S_Bb5S_s.wav
36,192,9112,1,0,0:0:0:20:A5S_s.wav
256,192,9305,1,0,0:0:0:20:F5S_s.wav
109,192,9497,1,0,0:0:0:20:D5S_s.wav
256,192,9689,1,0,0:0:0:20:F5S.wav
182,192,10266,1,0,0:0:0:20:G5S_s.wav
256,192,10651,1,0,0:0:0:20:A5S_s.wav
402,192,10843,1,0,0:0:0:20:A#5S_Bb5S.wav
402,192,12189,1,0,0:0:0:20:A#5S_Bb5S_s.wav
329,192,12574,1,0,0:0:0:20:A5S_s.wav
182,192,12766,1,0,0:0:0:20:G5S_s.wav
329,192,12959,1,0,0:0:0:20:A5S_s.wav
109,192,13151,1,0,0:0:0:20:D5S_s.wav
256,192,13343,1,0,0:0:0:20:F5S_s.wav
182,192,13728,1,0,0:0:0:20:A5S_s.wav
329,192,13920,1,0,0:0:0:20:A#5S_Bb5S.wav
109,192,14689,1,0,0:0:0:20:G6S_s.wav
256,192,14978,1,0,0:0:0:20:A6S_s.wav
402,192,15266,1,0,0:0:0:20:A#6S_Bb6S_s.wav
475,192,15459,1,0,0:0:0:20:C6S_s.wav
329,192,15843,1,0,0:0:0:20:G6S_s.wav
182,192,16228,1,0,0:0:0:20:F6S.wav
256,192,16997,1,0,0:0:0:20:A6S.wav
182,192,17766,1,0,0:0:0:20:A6S_s.wav
329,192,18055,1,0,0:0:0:20:A#6S_Bb6S_s.wav
475,192,18343,1,0,0:0:0:20:C7S_s.wav
402,192,18536,1,0,0:0:0:20:D6S_s.wav
256,192,18920,1,0,0:0:0:20:C6S_s.wav
109,192,19305,1,0,0:0:0:20:A#5S_Bb5S_s.wav
36,192,19689,1,0,0:0:0:20:A5S_s.wav
182,192,20074,1,0,0:0:0:20:A#5S_Bb5S.wav
475,192,20651,1,0,0:0:0:20:D6S_s.wav
329,192,21036,1,0,0:0:0:20:C6S_s.wav
182,192,21228,1,0,0:0:0:20:A#5S_Bb5S_s.wav
36,192,21420,1,0,0:0:0:20:A5S_s.wav
256,192,21612,1,0,0:0:0:20:F5S_s.wav
109,192,21805,1,0,0:0:0:20:D5S_s.wav
256,192,21997,1,0,0:0:0:20:F5S.wav
182,192,22574,1,0,0:0:0:20:G5S_s.wav
402,192,22959,1,0,0:0:0:20:A5S_s.wav
256,192,23151,1,0,0:0:0:20:G6S.wav
329,192,26228,1,0,0:0:0:20:A#5S_Bb5S.wav
109,192,26997,1,0,0:0:0:20:G6S_s.wav
256,192,27286,1,0,0:0:0:20:A6S_s.wav
402,192,27574,1,0,0:0:0:20:A#6S_Bb6S_s.wav
475,192,27766,1,0,0:0:0:20:C6S_s.wav
329,192,28151,1,0,0:0:0:20:G6S_s.wav
182,192,28536,1,0,0:0:0:20:F6S.wav
256,192,29305,1,0,0:0:0:20:A6S.wav
182,192,30074,1,0,0:0:0:20:A6S_s.wav
329,192,30362,1,0,0:0:0:20:A#6S_Bb6S_s.wav
475,192,30651,1,0,0:0:0:20:C7S_s.wav
402,192,30843,1,0,0:0:0:20:D6S_s.wav
256,192,31228,1,0,0:0:0:20:C6S_s.wav
109,192,31612,1,0,0:0:0:20:A#5S_Bb5S_s.wav
36,192,31997,1,0,0:0:0:20:A5S_s.wav
182,192,32382,1,0,0:0:0:20:A#5S_Bb5S.wav
475,192,32959,1,0,0:0:0:20:D6S_s.wav
329,192,33343,1,0,0:0:0:20:C6S_s.wav
182,192,33536,1,0,0:0:0:20:A#5S_Bb5S_s.wav
36,192,33728,1,0,0:0:0:20:A5S_s.wav
256,192,33920,1,0,0:0:0:20:F5S_s.wav
109,192,34112,1,0,0:0:0:20:D5S_s.wav
256,192,34305,1,0,0:0:0:20:F5S.wav
182,192,34882,1,0,0:0:0:20:G5S_s.wav
256,192,35266,1,0,0:0:0:20:A5S_s.wav
402,192,35459,1,0,0:0:0:20:A#5S_Bb5S.wav
402,192,36805,1,0,0:0:0:20:A#5S_Bb5S_s.wav
329,192,37189,1,0,0:0:0:20:A5S_s.wav
182,192,37382,1,0,0:0:0:20:G5S_s.wav
329,192,37574,1,0,0:0:0:20:A5S_s.wav
109,192,37766,1,0,0:0:0:20:D5S_s.wav
256,192,37959,1,0,0:0:0:20:F5S_s.wav
182,192,38343,1,0,0:0:0:20:A5S_s.wav
329,192,38536,1,0,0:0:0:20:A#5S_Bb5S.wav
109,192,39305,1,0,0:0:0:20:G6S_s.wav
256,192,39593,1,0,0:0:0:20:A6S_s.wav
402,192,39882,1,0,0:0:0:20:A#6S_Bb6S_s.wav
475,192,40074,1,0,0:0:0:20:C6S_s.wav
329,192,40459,1,0,0:0:0:20:G6S_s.wav
182,192,40843,1,0,0:0:0:20:F6S.wav
256,192,41612,1,0,0:0:0:20:A6S.wav
182,192,42382,1,0,0:0:0:20:A6S_s.wav
329,192,42670,1,0,0:0:0:20:A#6S_Bb6S_s.wav
475,192,42959,1,0,0:0:0:20:C7S_s.wav
402,192,43151,1,0,0:0:0:20:D6S_s.wav
256,192,43536,1,0,0:0:0:20:C6S_s.wav
109,192,43920,1,0,0:0:0:20:A#5S_Bb5S_s.wav
36,192,44305,1,0,0:0:0:20:A5S_s.wav
182,192,44689,1,0,0:0:0:20:A#5S_Bb5S.wav
475,192,45266,1,0,0:0:0:20:D6S_s.wav
329,192,45651,1,0,0:0:0:20:C6S_s.wav
182,192,45843,1,0,0:0:0:20:A#5S_Bb5S_s.wav
36,192,46036,1,0,0:0:0:20:A5S_s.wav
256,192,46228,1,0,0:0:0:20:F5S_s.wav
109,192,46420,1,0,0:0:0:20:D5S_s.wav
256,192,46612,1,0,0:0:0:20:F5S.wav
182,192,47189,1,0,0:0:0:20:G5S_s.wav
402,192,47574,1,0,0:0:0:20:A5S_s.wav
256,192,47766,1,0,0:0:0:20:G6S.wav
