osu file format v14

[General]
AudioFilename: audio.mp3
AudioLeadIn: 0
PreviewTime: 85
Countdown: 0
SampleSet: None
StackLeniency: 1
Mode: 3
LetterboxInBreaks: 0
SpecialStyle: 0
WidescreenStoryboard: 1

[Editor]
DistanceSpacing: 1.3
BeatDivisor: 8
GridSize: 4
TimelineZoom: 1

[Metadata]
Title:Last Christmas
TitleUnicode:Last Christmas
Artist:R3 Music Box
ArtistUnicode:R3 Music Box
Creator:Vulkin
Version:~Special~
Source:
Tags:Wham! George Michael Andrew Ridgeley xmas
BeatmapID:1715639
BeatmapSetID:818198

[Difficulty]
HPDrainRate:7
CircleSize:7
OverallDifficulty:7
ApproachRate:5
SliderMultiplier:1.4
SliderTickRate:1

[Events]
//Background and Video events
0,0,"335893.jpg",0,0
//Break Periods
//Storyboard Layer 0 (Background)
//Storyboard Layer 1 (Fail)
//Storyboard Layer 2 (Pass)
//Storyboard Layer 3 (Foreground)
//Storyboard Sound Samples

[TimingPoints]
85,714.285714285714,4,2,0,50,1,0
46513,769.230769230769,4,2,0,50,1,0
47282,797.34219269103,4,2,0,50,1,0
47680,930.232558139535,4,2,0,50,1,0
48145,979.591836734694,4,2,0,50,1,0
48634,1052.63157894737,4,2,0,50,1,0

[HitObjects]
402,192,85,5,0,0:0:0:70:LR_NBell_E6.wav
36,192,85,1,0,0:0:0:30:LR_NBell_D4.wav
182,192,442,1,0,0:0:0:30:LR_NBell_A4.wav
288,192,799,1,0,0:0:0:30:LR_NBell_F#5.wav
402,192,1156,1,0,0:0:0:70:LR_NBell_E6.wav
109,192,1156,1,0,0:0:0:30:LR_NBell_D5.wav
288,192,1513,1,0,0:0:0:30:LR_NBell_A5.wav
329,192,1870,1,0,0:0:0:70:LR_NBell_D6.wav
182,192,1870,1,0,0:0:0:30:LR_NBell_F#5.wav
36,192,2227,1,0,0:0:0:30:LR_NBell_D5.wav
256,192,2584,1,0,0:0:0:70:LR_NBell_A5.wav
109,192,2584,1,0,0:0:0:30:LR_NBell_F#5.wav
402,192,2942,1,0,0:0:0:70:LR_NBell_E6.wav
36,192,2942,1,0,0:0:0:30:LR_NBell_D4.wav
402,192,3299,1,0,0:0:0:70:LR_NBell_E6.wav
182,192,3299,1,0,0:0:0:30:LR_NBell_A4.wav
475,192,3656,1,0,0:0:0:70:LR_NBell_F#6.wav
288,192,3656,1,0,0:0:0:30:LR_NBell_F#5.wav
329,192,4013,1,0,0:0:0:70:LR_NBell_D6.wav
109,192,4013,1,0,0:0:0:30:LR_NBell_D5.wav
288,192,4370,1,0,0:0:0:30:LR_NBell_A5.wav
182,192,4727,1,0,0:0:0:30:LR_NBell_F#5.wav
256,192,5084,1,0,0:0:0:70:LR_NBell_B5.wav
36,192,5084,1,0,0:0:0:30:LR_NBell_D5.wav
256,192,5442,1,0,0:0:0:70:LR_NBell_B5.wav
109,192,5442,1,0,0:0:0:30:LR_NBell_F#5.wav
402,192,5799,1,0,0:0:0:70:LR_NBell_E6.wav
36,192,5799,1,0,0:0:0:30:LR_NBell_B4.wav
402,192,6156,1,0,0:0:0:70:LR_NBell_E6.wav
109,192,6156,1,0,0:0:0:30:LR_NBell_D5.wav
475,192,6513,1,0,0:0:0:70:LR_NBell_F#6.wav
182,192,6513,1,0,0:0:0:30:LR_NBell_F#5.wav
109,192,6870,1,0,0:0:0:30:LR_NBell_D5.wav
329,192,7227,1,0,0:0:0:70:LR_NBell_D6.wav
288,192,7227,1,0,0:0:0:30:LR_NBell_B5.wav
182,192,7584,1,0,0:0:0:30:LR_NBell_F#5.wav
109,192,7942,1,0,0:0:0:30:LR_NBell_D5.wav
256,192,8299,1,0,0:0:0:70:LR_NBell_B5.wav
182,192,8299,1,0,0:0:0:30:LR_NBell_F#5.wav
329,192,8656,1,0,0:0:0:70:LR_NBell_C#6.wav
36,192,8656,1,0,0:0:0:30:LR_NBell_B4.wav
402,192,9013,1,0,0:0:0:70:LR_NBell_D6.wav
109,192,9013,1,0,0:0:0:30:LR_NBell_D5.wav
329,192,9370,1,0,0:0:0:70:LR_NBell_C#6.wav
182,192,9370,1,0,0:0:0:30:LR_NBell_F#5.wav
256,192,9727,1,0,0:0:0:70:LR_NBell_B5.wav
109,192,9727,1,0,0:0:0:30:LR_NBell_D5.wav
352,192,10084,1,0,0:0:0:30:LR_NBell_B5.wav
288,192,10442,1,0,0:0:0:30:LR_NBell_F#5.wav
182,192,10799,1,0,0:0:0:30:LR_NBell_D5.wav
288,192,11156,1,0,0:0:0:30:LR_NBell_F#5.wav
402,192,11513,1,0,0:0:0:70:LR_NBell_F#6.wav
36,192,11513,1,0,0:0:0:30:LR_NBell_E4.wav
109,192,11870,1,0,0:0:0:30:LR_NBell_B4.wav
288,192,12227,1,0,0:0:0:30:LR_NBell_G5.wav
329,192,12584,1,0,0:0:0:70:LR_NBell_E6.wav
109,192,12584,1,0,0:0:0:30:LR_NBell_E5.wav
416,192,12942,1,0,0:0:0:30:LR_NBell_B5.wav
288,192,13299,1,0,0:0:0:30:LR_NBell_G5.wav
109,192,13656,1,0,0:0:0:30:LR_NBell_E5.wav
256,192,14013,1,0,0:0:0:70:LR_NBell_B5.wav
182,192,14013,1,0,0:0:0:30:LR_NBell_G5.wav
402,192,14370,1,0,0:0:0:70:LR_NBell_F#6.wav
36,192,14370,1,0,0:0:0:30:LR_NBell_E4.wav
480,192,14727,1,0,0:0:0:70:LR_NBell_G6.wav
109,192,14727,1,0,0:0:0:30:LR_NBell_B4.wav
402,192,15084,1,0,0:0:0:70:LR_NBell_F#6.wav
288,192,15084,1,0,0:0:0:30:LR_NBell_G5.wav
329,192,15442,1,0,0:0:0:70:LR_NBell_E6.wav
160,192,15442,1,0,0:0:0:30:LR_NBell_E5.wav
416,192,15799,1,0,0:0:0:30:LR_NBell_B5.wav
288,192,16156,1,0,0:0:0:30:LR_NBell_G5.wav
109,192,16513,1,0,0:0:0:30:LR_NBell_E5.wav
480,192,16870,1,0,0:0:0:70:LR_NBell_D6.wav
182,192,16870,1,0,0:0:0:30:LR_NBell_G5.wav
352,192,17227,1,0,0:0:0:70:LR_NBell_C#6.wav
36,192,17227,1,0,0:0:0:30:LR_NBell_A4.wav
480,192,17584,1,0,0:0:0:70:LR_NBell_D6.wav
109,192,17584,1,0,0:0:0:30:LR_NBell_C#5.wav
480,192,17942,1,0,0:0:0:70:LR_NBell_D6.wav
182,192,17942,1,0,0:0:0:30:LR_NBell_E5.wav
416,192,18299,1,0,0:0:0:70:LR_NBell_C#6.wav
109,192,18299,1,0,0:0:0:30:LR_NBell_C#5.wav
288,192,18656,1,0,0:0:0:30:LR_NBell_A5.wav
480,192,19013,1,0,0:0:0:70:LR_NBell_D6.wav
182,192,19013,1,0,0:0:0:30:LR_NBell_E5.wav
36,192,19370,1,0,0:0:0:30:LR_NBell_C#5.wav
416,192,19727,1,0,0:0:0:70:LR_NBell_C#6.wav
182,192,19727,1,0,0:0:0:30:LR_NBell_E5.wav
36,192,20084,1,0,0:0:0:30:LR_NBell_A4.wav
288,192,20442,1,0,0:0:0:70:LR_NBell_A5.wav
109,192,20442,1,0,0:0:0:30:LR_NBell_C#5.wav
182,192,20799,1,0,0:0:0:30:LR_NBell_E5.wav
109,192,21156,1,0,0:0:0:30:LR_NBell_C#5.wav
288,192,21513,1,0,0:0:0:30:LR_NBell_E5.wav
36,192,21870,1,0,0:0:0:30:LR_NBell_G5.wav
288,192,22227,1,0,0:0:0:30:LR_NBell_A5.wav
352,192,22584,1,0,0:0:0:30:LR_NBell_C#6.wav
402,192,22942,5,0,0:0:0:70:LR_NBell_E6.wav
36,192,22942,1,0,0:0:0:30:LR_NBell_D4.wav
182,192,23299,1,0,0:0:0:30:LR_NBell_A4.wav
288,192,23656,1,0,0:0:0:30:LR_NBell_F#5.wav
109,192,24013,1,0,0:0:0:30:LR_NBell_D5.wav
402,192,24013,1,0,0:0:0:70:LR_NBell_E6.wav
288,192,24370,1,0,0:0:0:30:LR_NBell_A5.wav
182,192,24727,1,0,0:0:0:30:LR_NBell_F#5.wav
329,192,24727,1,0,0:0:0:70:LR_NBell_D6.wav
36,192,25084,1,0,0:0:0:30:LR_NBell_D5.wav
109,192,25442,1,0,0:0:0:30:LR_NBell_F#5.wav
256,192,25442,1,0,0:0:0:70:LR_NBell_A5.wav
36,192,25799,1,0,0:0:0:30:LR_NBell_D4.wav
402,192,25799,1,0,0:0:0:70:LR_NBell_E6.wav
182,192,26156,1,0,0:0:0:30:LR_NBell_A4.wav
402,192,26156,1,0,0:0:0:70:LR_NBell_E6.wav
288,192,26513,1,0,0:0:0:30:LR_NBell_F#5.wav
475,192,26513,1,0,0:0:0:70:LR_NBell_F#6.wav
109,192,26870,1,0,0:0:0:30:LR_NBell_D5.wav
329,192,26870,1,0,0:0:0:70:LR_NBell_D6.wav
288,192,27227,1,0,0:0:0:30:LR_NBell_A5.wav
182,192,27584,1,0,0:0:0:30:LR_NBell_F#5.wav
36,192,27942,1,0,0:0:0:30:LR_NBell_D5.wav
256,192,27942,1,0,0:0:0:70:LR_NBell_B5.wav
109,192,28299,1,0,0:0:0:30:LR_NBell_F#5.wav
256,192,28299,1,0,0:0:0:70:LR_NBell_B5.wav
36,192,28656,1,0,0:0:0:30:LR_NBell_B4.wav
402,192,28656,1,0,0:0:0:70:LR_NBell_E6.wav
109,192,29013,1,0,0:0:0:30:LR_NBell_D5.wav
402,192,29013,1,0,0:0:0:70:LR_NBell_E6.wav
182,192,29370,1,0,0:0:0:30:LR_NBell_F#5.wav
475,192,29370,1,0,0:0:0:70:LR_NBell_F#6.wav
109,192,29727,1,0,0:0:0:30:LR_NBell_D5.wav
288,192,30084,1,0,0:0:0:30:LR_NBell_B5.wav
329,192,30084,1,0,0:0:0:70:LR_NBell_D6.wav
182,192,30442,1,0,0:0:0:30:LR_NBell_F#5.wav
109,192,30799,1,0,0:0:0:30:LR_NBell_D5.wav
182,192,31156,1,0,0:0:0:30:LR_NBell_F#5.wav
256,192,31156,1,0,0:0:0:70:LR_NBell_B5.wav
36,192,31513,1,0,0:0:0:30:LR_NBell_B4.wav
329,192,31513,1,0,0:0:0:70:LR_NBell_C#6.wav
109,192,31870,1,0,0:0:0:30:LR_NBell_D5.wav
402,192,31870,1,0,0:0:0:70:LR_NBell_D6.wav
182,192,32227,1,0,0:0:0:30:LR_NBell_F#5.wav
329,192,32227,1,0,0:0:0:70:LR_NBell_C#6.wav
109,192,32584,1,0,0:0:0:30:LR_NBell_D5.wav
256,192,32584,1,0,0:0:0:70:LR_NBell_B5.wav
182,192,32942,1,0,0:0:0:30:LR_NBell_B5.wav
329,192,32942,1,0,0:0:0:30:LR_NBell_C#6.wav
109,192,33299,1,0,0:0:0:30:LR_NBell_F#5.wav
402,192,33299,1,0,0:0:0:30:LR_NBell_D6.wav
36,192,33656,1,0,0:0:0:30:LR_NBell_D5.wav
329,192,33656,1,0,0:0:0:30:LR_NBell_C#6.wav
109,192,34013,1,0,0:0:0:30:LR_NBell_F#5.wav
256,192,34013,1,0,0:0:0:30:LR_NBell_B5.wav
36,192,34370,1,0,0:0:0:30:LR_NBell_E4.wav
402,192,34370,1,0,0:0:0:70:LR_NBell_F#6.wav
109,192,34727,1,0,0:0:0:30:LR_NBell_B4.wav
288,192,35084,1,0,0:0:0:30:LR_NBell_G5.wav
109,192,35442,1,0,0:0:0:30:LR_NBell_E5.wav
329,192,35442,1,0,0:0:0:70:LR_NBell_E6.wav
416,192,35799,1,0,0:0:0:30:LR_NBell_B5.wav
288,192,36156,1,0,0:0:0:30:LR_NBell_G5.wav
109,192,36513,1,0,0:0:0:30:LR_NBell_E5.wav
182,192,36870,1,0,0:0:0:30:LR_NBell_G5.wav
256,192,36870,1,0,0:0:0:70:LR_NBell_B5.wav
36,192,37227,1,0,0:0:0:30:LR_NBell_E4.wav
402,192,37227,1,0,0:0:0:70:LR_NBell_F#6.wav
109,192,37584,1,0,0:0:0:30:LR_NBell_B4.wav
480,192,37584,1,0,0:0:0:70:LR_NBell_G6.wav
288,192,37942,1,0,0:0:0:30:LR_NBell_G5.wav
402,192,37942,1,0,0:0:0:70:LR_NBell_F#6.wav
109,192,38299,1,0,0:0:0:30:LR_NBell_E5.wav
329,192,38299,1,0,0:0:0:70:LR_NBell_E6.wav
416,192,38656,1,0,0:0:0:30:LR_NBell_B5.wav
288,192,39013,1,0,0:0:0:30:LR_NBell_G5.wav
109,192,39370,1,0,0:0:0:30:LR_NBell_E5.wav
182,192,39727,1,0,0:0:0:30:LR_NBell_G5.wav
480,192,39727,1,0,0:0:0:70:LR_NBell_D6.wav
36,192,40084,1,0,0:0:0:30:LR_NBell_A4.wav
352,192,40084,1,0,0:0:0:70:LR_NBell_C#6.wav
109,192,40442,1,0,0:0:0:30:LR_NBell_C#5.wav
480,192,40442,1,0,0:0:0:70:LR_NBell_D6.wav
182,192,40799,1,0,0:0:0:30:LR_NBell_E5.wav
480,192,40799,1,0,0:0:0:70:LR_NBell_D6.wav
109,192,41156,1,0,0:0:0:30:LR_NBell_C#5.wav
352,192,41156,1,0,0:0:0:70:LR_NBell_C#6.wav
416,192,41513,1,0,0:0:0:30:LR_NBell_A5.wav
182,192,41870,1,0,0:0:0:30:LR_NBell_E5.wav
480,192,41870,1,0,0:0:0:70:LR_NBell_D6.wav
36,192,42227,1,0,0:0:0:30:LR_NBell_C#5.wav
182,192,42584,1,0,0:0:0:30:LR_NBell_E5.wav
416,192,42584,1,0,0:0:0:70:LR_NBell_C#6.wav
36,192,42942,1,0,0:0:0:30:LR_NBell_A4.wav
288,192,43299,1,0,0:0:0:70:LR_NBell_A5.wav
109,192,43299,1,0,0:0:0:30:LR_NBell_C#5.wav
182,192,43656,1,0,0:0:0:30:LR_NBell_E5.wav
416,192,44013,1,0,0:0:0:30:LR_NBell_C#6.wav
36,192,44013,1,0,0:0:0:30:LR_NBell_C#5.wav
182,192,44370,1,0,0:0:0:30:LR_NBell_E5.wav
288,192,44727,1,0,0:0:0:30:LR_NBell_A5.wav
36,192,44727,1,0,0:0:0:30:LR_NBell_C#5.wav
182,192,45084,1,0,0:0:0:30:LR_NBell_E5.wav
288,192,45442,1,0,0:0:0:30:LR_NBell_A5.wav
36,192,45799,1,0,0:0:0:30:LR_NBell_D4.wav
109,192,46156,1,0,0:0:0:30:LR_NBell_A4.wav
182,192,46513,1,0,0:0:0:30:LR_NBell_C#5.wav
109,192,46897,1,0,0:0:0:30:LR_NBell_A4.wav
182,192,47282,1,0,0:0:0:30:LR_NBell_C#5.wav
288,192,47680,1,0,0:0:0:30:LR_NBell_F#5.wav
352,192,48145,1,0,0:0:0:30:LR_NBell_A5.wav
288,192,48634,1,0,0:0:0:30:LR_NBell_F#5.wav
352,192,48765,1,0,0:0:0:30:LR_NBell_A5.wav
416,192,48897,1,0,0:0:0:30:LR_NBell_C#6.wav
