osu file format v14

[General]
AudioFilename: audio.mp3
AudioLeadIn: 0
PreviewTime: 0
Countdown: 0
SampleSet: Soft
StackLeniency: 0.7
Mode: 0
LetterboxInBreaks: 0
WidescreenStoryboard: 1

[Editor]
DistanceSpacing: 1
BeatDivisor: 4
GridSize: 4
TimelineZoom: 1

[Metadata]
Title:Last Christmas
TitleUnicode:Last Christmas
Artist:R3 Music Box
ArtistUnicode:R3 Music Box
Creator:Monstrata
Version:Gift
Source:
Tags:wham! xmas snow festive happy merry holidays
BeatmapID:1492031
BeatmapSetID:705429

[Difficulty]
HPDrainRate:2
CircleSize:3.5
OverallDifficulty:3
ApproachRate:3
SliderMultiplier:2
SliderTickRate:1

[Events]
//Background and Video events
0,0,"Konachan.com - 241448 sample.jpg",0,0
//Break Periods
//Storyboard Layer 0 (Background)
//Storyboard Layer 1 (Fail)
//Storyboard Layer 2 (Pass)
//Storyboard Layer 3 (Foreground)
//Storyboard Sound Samples

[TimingPoints]
49,714.285714285714,4,2,1,45,1,0
43977,-100,4,2,1,30,0,0
45763,-100,4,2,1,20,0,0

[Colours]
Combo1 : 128,255,255
Combo2 : 188,121,255

[HitObjects]
92,41,49,6,0,L|77:263,1,200,2|0,0:0|0:0,0:0:0:0:
169,202,1120,2,0,P|216:188|264:200,1,100,2|0,0:0|0:0,0:0:0:0:
349,253,1834,2,0,P|396:265|444:251,1,100,2|0,0:0|0:0,0:0:0:0:
507,173,2548,1,2,0:0:0:0:
435,103,2906,6,0,P|421:55|433:8,2,100,2|0|2,0:0|0:0|0:0,0:0:0:0:
356,164,3977,2,0,P|261:193|167:164,1,200,2|0,0:0|0:0,0:0:0:0:
104,87,5048,1,2,0:0:0:0:
27,150,5406,1,0,0:0:0:0:
89,226,5763,6,0,P|102:275|89:322,1,100,2|0,0:0|0:0,0:0:0:0:
164,384,6477,2,0,P|212:371|259:384,1,100,2|0,0:0|0:0,0:0:0:0:
342,329,7191,2,0,P|428:371|511:324,1,200,2|0,0:0|0:0,0:0:0:0:
512,224,8263,1,2,0:0:0:0:
423,178,8620,6,0,P|411:226|424:273,2,100,2|0|2,0:0|0:0|0:0,0:0:0:0:
368,94,9691,2,0,B|304:78|304:78|171:94,1,200,2|0,0:0|0:0,0:0:0:0:
104,169,10763,2,0,B|4:180,1,100
64,260,11477,6,0,B|262:283,1,200,2|0,0:0|0:0,0:0:0:0:
303,374,12548,2,0,P|352:326|316:200,1,200,2|0,0:0|0:0,0:0:0:0:
140,134,13977,1,2,0:0:0:0:
72,59,14334,6,0,P|115:35|164:34,2,100,2|0|2,0:0|0:0|0:0,0:0:0:0:
42,156,15406,2,0,P|81:216|210:207,1,200,2|0,0:0|0:0,0:0:0:0:
389,171,16834,1,2,0:0:0:0:
482,210,17191,6,0,L|497:324,2,100,2|0|2,0:0|0:0|0:0,0:0:0:0:
468,110,18263,2,0,L|454:11,1,100,2|0,0:0|0:0,0:0:0:0:
375,71,18977,2,0,L|275:84,1,100,2|0,0:0|0:0,0:0:0:0:
207,156,19691,6,0,L|107:142,1,100,2|0,0:0|0:0,0:0:0:0:
29,205,20406,1,2,0:0:0:0:
423,88,22906,6,0,P|455:180|424:273,1,200,2|0,0:0|0:0,0:0:0:0:
345,215,23977,2,0,L|230:204,1,100,2|0,0:0|0:0,0:0:0:0:
162,261,24691,2,0,L|47:272,1,100,2|0,0:0|0:0,0:0:0:0:
16,181,25405,1,0,0:0:0:0:
83,106,25763,6,0,P|97:58|85:11,2,100,2|0|2,0:0|0:0|0:0,0:0:0:0:
157,172,26834,2,0,B|255:212|255:136|350:174,1,200,2|0,0:0|0:0,0:0:0:0:
426,239,27905,1,2,0:0:0:0:
490,163,28263,1,0,0:0:0:0:
414,97,28620,6,0,P|401:49|414:2,1,100,2|0,0:0|0:0,0:0:0:0:
318,31,29334,2,0,P|270:44|222:31,1,100,2|0,0:0|0:0,0:0:0:0:
190,125,30048,2,0,P|232:211|185:294,1,200,2|0,0:0|0:0,0:0:0:0:
85,295,31120,1,2,0:0:0:0:
39,204,31477,6,0,P|87:193|135:207,2,100,2|0|2,0:0|0:0|0:0,0:0:0:0:
85,295,32548,2,0,B|283:318,1,200,2|0,0:0|0:0,0:0:0:0:
365,259,33620,2,0,B|376:159,1,100
308,85,34334,6,0,B|110:108,1,200,2|0,0:0|0:0,0:0:0:0:
44,183,35405,2,0,P|9:272|67:349,1,200,2|0,0:0|0:0,0:0:0:0:
263,308,36834,1,2,0:0:0:0:
331,233,37191,6,0,P|288:209|239:208,2,100,2|0|2,0:0|0:0|0:0,0:0:0:0:
410,293,38263,2,0,L|456:70,1,200,2|0,0:0|0:0,0:0:0:0:
261,30,39691,1,2,0:0:0:0:
209,115,40048,6,0,L|233:232,2,100,2|0|2,0:0|0:0|0:0,0:0:0:0:
157,27,41120,2,0,P|107:20|61:33,1,100,2|0,0:0|0:0,0:0:0:0:
5,114,41834,2,0,P|-2:164|10:210,1,100,2|0,0:0|0:0,0:0:0:0:
91,266,42548,6,0,P|141:273|187:260,1,100,2|0,0:0|0:0,0:0:0:0:
243,179,43263,2,0,P|250:128|237:82,1,100,2|0,0:0|0:0,0:0:0:0:
321,29,43977,2,0,P|361:61|407:72,1,100
411,171,44691,2,0,P|362:189|330:224,1,100
256,192,45763,12,2,48858,0:0:0:0:
