osu file format v14

[General]
AudioFilename: audio.mp3
AudioLeadIn: 0
PreviewTime: 225
Countdown: 0
SampleSet: Soft
StackLeniency: 0.7
Mode: 0
LetterboxInBreaks: 0
WidescreenStoryboard: 1

[Editor]
DistanceSpacing: 1.3
BeatDivisor: 4
GridSize: 32
TimelineZoom: 1

[Metadata]
Title:Koi no Hime Hime Pettanko
TitleUnicode:Koi no Hime Hime Pettanko
Artist:R3 Music Box
ArtistUnicode:R3 Music Box
Creator:LowComboFC
Version:Hime
Source:弱虫ペダル
Tags:yowamushi pedal Himeno Kotori Tamura Yukari 姫野湖鳥 田村ゆかり lcfc
BeatmapID:1327442
BeatmapSetID:628987

[Difficulty]
HPDrainRate:4
CircleSize:3.5
OverallDifficulty:4
ApproachRate:3.5
SliderMultiplier:1.5
SliderTickRate:1

[Events]
//Background and Video events
0,0,"bg.jpg",0,0
//Break Periods
//Storyboard Layer 0 (Background)
//Storyboard Layer 1 (Fail)
//Storyboard Layer 2 (Pass)
//Storyboard Layer 3 (Foreground)
//Storyboard Sound Samples

[TimingPoints]
225,606.060606060606,4,2,1,40,1,0
1438,606.060606060606,4,2,1,40,1,0
51741,652.173913043478,4,2,1,40,1,0
52393,631.578947368421,4,2,1,40,1,0
53024,697.674418604651,4,2,1,40,1,0
53721,769.230769230769,4,2,1,40,1,0

[Colours]
Combo1 : 43,255,43
Combo2 : 0,191,0

[HitObjects]
42,117,225,6,0,P|93:68|163:85,1,150,8|0,0:0|0:0,0:0:0:0:
224,151,1134,1,0,0:0:0:0:
300,199,1438,6,0,B|389:211|350:154|447:171,1,150,2|0,0:0|0:0,0:0:0:0:
496,241,2347,1,0,0:0:0:0:
448,317,2650,2,0,B|356:333|395:276|306:288,1,150,2|0,0:0|0:0,0:0:0:0:
226,328,3559,1,0,0:0:0:0:
150,278,3862,6,0,P|141:241|154:207,1,75,2|0,0:0|0:0,0:0:0:0:
182,124,4468,2,0,P|190:87|177:53,1,75
98,13,5074,2,0,L|23:22,2,75,8|0|0,0:0|0:0|0:0,0:0:0:0:
178,54,5983,1,0,0:0:0:0:
267,52,6286,6,0,P|336:34|388:84,1,150,2|0,0:0|0:0,0:0:0:0:
380,174,7195,1,0,0:0:0:0:
338,253,7498,2,0,P|268:270|216:220,1,150,2|0,0:0|0:0,0:0:0:0:
131,248,8407,1,0,0:0:0:0:
43,223,8710,6,0,P|30:188|38:152,1,75,2|0,0:0|0:0,0:0:0:0:
100,87,9316,2,0,L|174:96,1,75,0|0,0:0|0:0,0:0:0:0:
249,45,9922,2,0,B|278:27|317:35|317:35|343:66|388:63,1,150,8|0,0:0|0:0,0:0:0:0:
459,8,10831,1,0,0:0:0:0:
493,91,11134,5,2,0:0:0:0:
473,179,11438,2,0,P|421:229|351:211,1,150
263,226,12347,2,0,P|250:260|258:296,2,75,2|0|0,0:0|0:0|0:0,0:0:0:0:
296,142,13256,6,0,P|346:91|329:21,1,150,2|0,0:0|0:0,0:0:0:0:
238,17,14165,2,0,L|163:26,1,75
122,106,14771,2,0,B|101:260,1,150,8|0,0:0|0:0,0:0:0:0:
118,342,15680,1,0,0:0:0:0:
187,284,15983,6,0,P|260:299|330:326,1,150,2|0,0:0|0:0,0:0:0:0:
419,315,16892,2,0,P|427:278|414:244,1,75,0|2,0:0|0:0,0:0:0:0:
331,209,17498,1,0,0:0:0:0:
331,209,17801,1,0,0:0:0:0:
350,123,18104,6,0,L|514:144,1,150,2|0,0:0|0:0,0:0:0:0:
501,232,19013,1,0,0:0:0:0:
353,334,19619,2,0,P|283:351|230:302,1,150,8|0,0:0|0:0,0:0:0:0:
177,230,20528,1,0,0:0:0:0:
240,167,20831,6,0,P|257:97|207:45,1,150,2|0,0:0|0:0,0:0:0:0:
125,83,21741,1,0,0:0:0:0:
36,65,22044,2,0,L|22:226,1,150,2|0,0:0|0:0,0:0:0:0:
65,293,22953,1,0,0:0:0:0:
107,372,23256,6,0,L|182:381,1,75,2|0,0:0|0:0,0:0:0:0:
239,312,23862,2,0,L|314:303,1,75
403,296,24468,2,0,P|415:330|407:366,2,75,8|0|0,0:0|0:0|0:0,0:0:0:0:
352,221,25377,1,0,0:0:0:0:
301,146,25680,6,0,P|231:119|157:103,1,150,2|0,0:0|0:0,0:0:0:0:
71,128,26589,1,0,0:0:0:0:
133,192,26892,2,0,B|151:221|143:260|143:260|112:286|115:331,1,150,2|0,0:0|0:0,0:0:0:0:
204,327,27801,1,0,0:0:0:0:
280,276,28104,6,0,P|293:241|285:205,1,75,2|0,0:0|0:0,0:0:0:0:
229,134,28710,2,0,P|215:99|223:63,1,75
301,19,29316,2,0,L|451:42,1,150,8|0,0:0|0:0,0:0:0:0:
504,113,30225,1,0,0:0:0:0:
448,184,30528,6,0,L|457:259,2,75,2|0|0,0:0|0:0|0:0,0:0:0:0:
361,158,31437,1,0,0:0:0:0:
295,220,31741,2,0,B|283:309|340:270|324:368,1,150,2|0,0:0|0:0,0:0:0:0:
236,343,32650,6,0,P|166:360|114:310,1,150,2|0,0:0|0:0,0:0:0:0:
71,231,33559,2,0,L|62:156,1,75
96,73,34165,2,0,P|166:56|218:106,1,150,8|0,0:0|0:0,0:0:0:0:
228,285,35377,6,0,L|237:360,2,75,2|0|0,0:0|0:0|0:0,0:0:0:0:
362,164,36589,2,0,L|353:89,2,75,2|0|0,0:0|0:0|0:0,0:0:0:0:
272,164,37498,6,0,P|162:139|97:250,1,225,2|0,0:0|0:0,0:0:0:0:
99,306,38710,1,0,0:0:0:0:
178,346,39013,2,0,L|336:331,1,150,8|0,0:0|0:0,0:0:0:0:
417,324,39922,5,2,0:0:0:0:
443,145,40528,2,0,P|406:152|372:139,1,75
300,85,41134,1,0,0:0:0:0:
224,138,41438,2,0,P|206:208|256:260,1,150,2|0,0:0|0:0,0:0:0:0:
341,232,42347,6,0,B|430:220|391:277|489:261,1,150,2|0,0:0|0:0,0:0:0:0:
462,174,43256,1,0,0:0:0:0:
443,85,43559,1,0,0:0:0:0:
279,10,44165,1,0,0:0:0:0:
260,99,44468,1,8,0:0:0:0:
106,196,45074,6,0,P|121:269|148:339,1,150,2|0,0:0|0:0,0:0:0:0:
235,317,45983,1,0,0:0:0:0:
323,336,46286,2,0,L|398:327,1,75,2|0,0:0|0:0,0:0:0:0:
414,238,46892,2,0,L|339:229,1,75
284,159,47498,6,0,P|231:109|162:127,1,150,2|0,0:0|0:0,0:0:0:0:
102,194,48407,1,0,0:0:0:0:
154,267,48710,2,0,P|167:301|159:337,1,75,8|0,0:0|0:0,0:0:0:0:
70,347,49316,2,0,P|56:312|64:276,1,75
102,194,49922,6,0,L|84:45,2,150,2|0|2,0:0|0:0|0:0,0:0:0:0:
154,267,51437,1,0,0:0:0:0:
220,328,51741,2,0,P|256:335|290:321,1,75
361,261,52393,6,0,P|397:253|431:267,1,75,2|0,0:0|0:0,0:0:0:0:
500,212,53024,2,0,L|510:131,1,75
453,69,53721,2,0,P|383:50|331:100,1,150,8|0,0:0|0:0,0:0:0:0:
