osu file format v14

[General]
AudioFilename: audio.mp3
AudioLeadIn: 0
PreviewTime: 49
Countdown: 0
SampleSet: Soft
StackLeniency: 0.7
Mode: 0
LetterboxInBreaks: 0
WidescreenStoryboard: 0

[Editor]
Bookmarks: 1836,24692,53264
DistanceSpacing: 1
BeatDivisor: 4
GridSize: 16
TimelineZoom: 0.6999999

[Metadata]
Title:Koi Yuki
TitleUnicode:恋い雪
Artist:R3 Music Box
ArtistUnicode:R3 Music Box
Creator:Flamenco
Version:Love Affair
Source:
Tags:silent siren サイレントサイレン love snow cover
BeatmapID:1518220
BeatmapSetID:718882

[Difficulty]
HPDrainRate:4
CircleSize:3.5
OverallDifficulty:3.5
ApproachRate:4
SliderMultiplier:1.9
SliderTickRate:2

[Events]
//Background and Video events
0,0,"19bbf81038b1ade03e73ccdb8bedb390-d7fwsc4.jpg",0,0
//Break Periods
//Storyboard Layer 0 (Background)
//Storyboard Layer 1 (Fail)
//Storyboard Layer 2 (Pass)
//Storyboard Layer 3 (Foreground)
//Storyboard Sound Samples

[TimingPoints]
-1021,714.285714285714,4,2,1,45,1,0
53978,-100,4,2,1,35,0,0
54693,-100,4,2,1,25,0,0
55407,-100,4,2,1,15,0,0
56120,-100,4,2,1,5,0,0

[Colours]
Combo1 : 90,63,243
Combo2 : 69,87,248
SliderBorder : 120,120,240
SliderTrackOverride : 0,0,40

[HitObjects]
128,140,49,5,0,0:0:0:0:
128,140,763,2,0,P|127:94|116:45,2,95,0|2|0,0:0|0:0|0:0,0:0:0:0:
80,244,1836,6,0,L|203:228,1,95,2|0,0:0|0:0,0:0:0:0:
240,148,2551,2,0,L|334:159,1,95,2|0,0:0|0:0,0:0:0:0:
438,173,3265,1,2,0:0:0:0:
502,255,3622,1,0,0:0:0:0:
448,344,3979,2,0,P|408:301|398:238,1,95,2|0,0:0|0:0,0:0:0:0:
438,173,4694,6,0,P|434:126|410:85,1,95,2|0,0:0|0:0,0:0:0:0:
308,32,5408,2,0,L|192:46,1,95,2|0,0:0|0:0,0:0:0:0:
163,156,6122,2,0,P|259:181|355:156,1,190,2|0,0:0|0:0,0:0:0:0:
256,90,7194,1,0,0:0:0:0:
163,156,7551,6,0,L|174:250,1,95,2|0,0:0|0:0,0:0:0:0:
117,337,8265,2,0,P|165:353|214:346,1,95,2|0,0:0|0:0,0:0:0:0:
277,269,8979,2,0,P|323:264|368:280,1,95,2|0,0:0|0:0,0:0:0:0:
454,339,9694,1,0,0:0:0:0:
472,236,10051,1,0,0:0:0:0:
379,185,10408,6,0,L|367:279,1,95,2|0,0:0|0:0,0:0:0:0:
299,358,11122,2,0,P|252:362|207:346,1,95,2|0,0:0|0:0,0:0:0:0:
119,275,11836,2,0,B|153:170|78:190|119:80,1,190,2|0,0:0|0:0,0:0:0:0:
209,135,12908,1,0,0:0:0:0:
289,201,13265,6,0,P|248:231|199:239,1,95,2|0,0:0|0:0,0:0:0:0:
118,182,13979,2,0,P|71:192|34:220,1,95,2|0,0:0|0:0,0:0:0:0:
17,314,14694,2,0,P|48:348|92:366,1,95,2|0,0:0|0:0,0:0:0:0:
105,272,15408,1,2,0:0:0:0:
184,323,15765,2,0,P|198:278|192:231,1,95,2|0,0:0|0:0,0:0:0:0:
148,126,16479,1,0,0:0:0:0:
143,116,17194,5,0,0:0:0:0:
246,130,17551,2,0,L|340:141,1,95,2|0,0:0|0:0,0:0:0:0:
385,235,18265,2,0,L|479:246,1,95,2|0,0:0|0:0,0:0:0:0:
411,337,18979,2,0,P|320:318|281:228,1,190,2|0,0:0|0:0,0:0:0:0:
284,131,20051,2,0,P|373:66|364:186,1,285,2|0,0:0|0:0,0:0:0:0:
280,236,21479,1,0,0:0:0:0:
192,179,21836,6,0,L|173:331,2,142.5
204,75,23265,2,0,L|51:56,2,142.5
288,137,24694,6,0,P|336:153|385:146,1,95,2|0,0:0|0:0,0:0:0:0:
482,156,25408,2,0,P|476:109|451:69,1,95,2|0,0:0|0:0,0:0:0:0:
348,51,26122,1,2,0:0:0:0:
288,137,26479,1,0,0:0:0:0:
323,235,26836,2,0,L|417:246,1,95,2|0,0:0|0:0,0:0:0:0:
442,357,27551,6,0,L|348:346,1,95,2|0,0:0|0:0,0:0:0:0:
323,235,28265,2,0,L|229:246,1,95,2|0,0:0|0:0,0:0:0:0:
181,349,28979,2,0,P|121:286|136:174,1,190,2|0,0:0|0:0,0:0:0:0:
182,100,30051,1,0,0:0:0:0:
285,117,30408,6,0,P|262:169|200:201,1,95,2|0,0:0|0:0,0:0:0:0:
126,188,31122,2,0,P|79:181|35:198,1,95,2|0,0:0|0:0,0:0:0:0:
90,276,31836,2,0,L|101:370,1,95,2|0,0:0|0:0,0:0:0:0:
190,315,32551,1,0,0:0:0:0:
279,260,32908,1,0,0:0:0:0:
277,354,33265,6,0,L|279:260,1,95,2|0,0:0|0:0,0:0:0:0:
368,206,33979,2,0,P|414:199|458:216,1,95,2|0,0:0|0:0,0:0:0:0:
505,310,34694,2,0,P|460:218|479:101,1,190,2|0,0:0|0:0,0:0:0:0:
460,28,35765,1,0,0:0:0:0:
376,90,36122,6,0,P|306:164|190:189,1,190,2|0,0:0|0:0,0:0:0:0:
173,88,37194,2,0,P|83:117|21:188,1,190,2|0,0:0|0:0,0:0:0:0:
1,300,38265,2,0,L|95:311,1,95,2|0,0:0|0:0,0:0:0:0:
189,375,38979,6,0,P|184:328|200:283,1,95,2|0,0:0|0:0,0:0:0:0:
257,195,39694,2,0,P|301:210|348:206,1,95,2|0,0:0|0:0,0:0:0:0:
411,123,40408,1,2,0:0:0:0:
309,103,40765,1,0,0:0:0:0:
258,194,41122,1,2,0:0:0:0:
330,270,41479,1,0,0:0:0:0:
425,226,41836,6,0,L|341:180,1,95,2|0,0:0|0:0,0:0:0:0:
361,77,42551,2,0,L|267:66,1,95
179,9,43265,2,0,P|163:53|167:100,1,95
247,166,43979,2,0,P|263:210|259:257,1,95
207,349,44694,6,0,L|113:338,1,95
71,242,45408,2,0,P|66:195|82:150,1,95
163,83,46122,2,0,L|257:72,1,95,2|0,0:0|0:0,0:0:0:0:
288,84,46658,2,0,P|304:128|299:175,1,95,2|0,0:0|0:0,0:0:0:0:
274,197,47194,1,2,0:0:0:0:
196,280,47551,6,0,L|305:293,1,95,2|0,0:0|0:0,0:0:0:0:
383,303,48265,1,0,0:0:0:0:
477,315,48622,1,0,0:0:0:0:
477,315,50051,5,0,0:0:0:0:
440,227,50408,2,0,P|444:180|428:135,1,95,2|0,0:0|0:0,0:0:0:0:
351,80,51122,2,0,P|304:75|259:91,1,95,2|0,0:0|0:0,0:0:0:0:
208,171,51836,2,0,P|203:217|219:262,1,95,2|0,0:0|0:0,0:0:0:0:
292,324,52551,1,0,0:0:0:0:
256,192,53265,12,0,56122,0:0:0:0:
