osu file format v14

[General]
AudioFilename: audio.mp3
AudioLeadIn: 0
PreviewTime: 0
Countdown: 0
SampleSet: Soft
StackLeniency: 0.7
Mode: 2
LetterboxInBreaks: 0
WidescreenStoryboard: 1

[Editor]
DistanceSpacing: 1.4
BeatDivisor: 4
GridSize: 8
TimelineZoom: 1

[Metadata]
Title:Imagination
TitleUnicode:イマジネーション
Artist:R3 Music Box
ArtistUnicode:R3 Music Box
Creator:Ascendance
Version:Salad
Source:ハイキュー!!
Tags:haikyuu haikyu opening season 1 music box SPYAIR
BeatmapID:1288131
BeatmapSetID:598797

[Difficulty]
HPDrainRate:5
CircleSize:3
OverallDifficulty:7
ApproachRate:7
SliderMultiplier:2
SliderTickRate:2

[Events]
//Background and Video events
0,0,"cropped-1920-1080-732402.png",0,0
//Break Periods
//Storyboard Layer 0 (Background)
//Storyboard Layer 1 (Fail)
//Storyboard Layer 2 (Pass)
//Storyboard Layer 3 (Foreground)
//Storyboard Sound Samples

[TimingPoints]
85,582.52427184466,4,2,1,40,1,0
958,-100,4,2,1,60,0,0
1250,582.52427184466,4,2,1,40,1,0
19599,-100,4,2,1,60,0,0
19745,-100,4,2,1,40,0,0
28919,-100,4,2,1,60,0,0
29065,-100,4,2,1,40,0,0
36201,-100,4,2,1,60,0,0
36347,-100,4,2,1,40,0,0
40861,-100,4,2,1,60,0,0
41007,-100,4,2,1,40,0,0
42026,-100,4,2,1,60,0,0
42172,-100,4,2,1,40,0,0

[Colours]
Combo1 : 255,128,0
Combo2 : 224,78,73
Combo3 : 128,0,0
Combo4 : 186,116,116

[HitObjects]
224,264,85,6,0,L|336:264,1,100,0|0,0:0|0:0,0:0:0:0:
80,336,958,6,0,P|8:224|136:112,1,300,6|0,0:0|0:0,0:0:0:0:
240,112,2415,2,0,L|128:112,2,100,0|0|0,0:0|0:0|0:0,0:0:0:0:
472,336,3288,6,0,P|512:280|432:176,1,200,2|0,0:0|0:0,0:0:0:0:
272,120,4162,2,0,L|392:120,1,100
200,176,4745,2,0,L|64:176,2,100
448,176,5618,5,2,0:0:0:0:
152,328,6201,1,0,0:0:0:0:
368,248,6783,2,0,L|384:40,1,200,2|0,0:0|0:0,0:0:0:0:
200,160,7949,6,0,L|424:176,1,200,2|0,0:0|0:0,0:0:0:0:
264,296,8822,1,0,0:0:0:0:
432,144,9405,2,0,L|448:24,1,100,0|0,0:0|0:0,0:0:0:0:
312,64,9987,1,0,0:0:0:0:
64,88,10279,6,0,P|8:168|96:248,1,200,2|0,0:0|0:0,0:0:0:0:
176,288,11152,1,0,0:0:0:0:
424,176,11735,2,0,L|312:176,2,100,0|0|0,0:0|0:0|0:0,0:0:0:0:
192,56,12609,6,0,P|128:128|208:208,1,200,2|0,0:0|0:0,0:0:0:0:
296,216,13483,1,0,0:0:0:0:
128,352,14065,2,0,L|120:240,1,100,0|0,0:0|0:0,0:0:0:0:
424,176,14939,5,2,0:0:0:0:
200,184,15521,1,0,0:0:0:0:
408,160,16104,2,0,L|184:160,2,200,2|0|2,0:0|0:0|0:0,0:0:0:0:
272,344,17560,5,0,0:0:0:0:
194,286,17851,1,0,0:0:0:0:
200,190,18142,1,0,0:0:0:0:
283,142,18433,1,0,0:0:0:0:
160,136,18725,2,0,L|48:136,2,100
376,136,19599,6,0,P|432:216|368:288,1,200,6|0,0:0|0:0,0:0:0:0:
240,312,20473,1,0,0:0:0:0:
432,336,21055,2,0,L|320:336,2,100,0|0|0,0:0|0:0|0:0,0:0:0:0:
184,280,21929,6,0,P|128:208|208:128,1,200,2|0,0:0|0:0,0:0:0:0:
296,120,22803,1,0,0:0:0:0:
104,48,23385,1,0,0:0:0:0:
32,152,23676,1,0,0:0:0:0:
111,247,23967,1,0,0:0:0:0:
368,352,24259,6,0,P|416:296|336:192,1,200,2|0,0:0|0:0,0:0:0:0:
136,72,25424,2,0,P|80:152|160:224,1,200,2|0,0:0|0:0,0:0:0:0:
368,280,26589,2,0,L|152:288,1,200,2|0,0:0|0:0,0:0:0:0:
64,216,27463,2,0,L|48:112,1,100,0|0,0:0|0:0,0:0:0:0:
312,64,28046,6,0,L|416:80,2,100,2|0|0,0:0|0:0|0:0,0:0:0:0:
88,256,28919,2,0,L|328:240,2,200,6|0|2,0:0|0:0|0:0,0:0:0:0:
360,344,30667,2,0,L|152:336,2,200,0|2|0,0:0|0:0|0:0,0:0:0:0:
176,328,32415,2,0,P|144:216|184:144,1,200,2|0,0:0|0:0,0:0:0:0:
352,128,33580,1,2,0:0:0:0:
184,344,33871,5,0,0:0:0:0:
128,264,34162,1,0,0:0:0:0:
153,171,34453,1,0,0:0:0:0:
241,131,34744,1,0,0:0:0:0:
344,128,35036,1,0,0:0:0:0:
136,280,35618,2,0,L|128:160,1,100
328,160,36201,6,0,L|336:56,1,100,4|0,0:0|0:0,0:0:0:0:
64,184,37075,2,0,L|304:200,2,200,2|2|2,0:0|0:0|0:0,0:0:0:0:
192,296,38531,5,0,0:0:0:0:
266,234,38822,1,0,0:0:0:0:
263,138,39113,1,0,0:0:0:0:
80,80,39696,1,0,0:0:0:0:
184,80,39987,1,0,0:0:0:0:
280,80,40279,2,0,L|384:80,1,100
136,160,40861,5,4,0:0:0:0:
368,152,42026,1,4,0:0:0:0:
