osu file format v14

[General]
AudioFilename: audio.mp3
AudioLeadIn: 0
PreviewTime: 0
Countdown: 0
SampleSet: Soft
StackLeniency: 0.7
Mode: 2
LetterboxInBreaks: 0
WidescreenStoryboard: 0

[Editor]
DistanceSpacing: 1.4
BeatDivisor: 4
GridSize: 8
TimelineZoom: 1

[Metadata]
Title:Imagination
TitleUnicode:イマジネーション
Artist:R3 Music Box
ArtistUnicode:R3 Music Box
Creator:Ascendance
Version:Imagination
Source:ハイキュー!!
Tags:haikyuu haikyu opening season 1 music box SPYAIR
BeatmapID:1265708
BeatmapSetID:598797

[Difficulty]
HPDrainRate:6
CircleSize:3.5
OverallDifficulty:8
ApproachRate:8
SliderMultiplier:2.2
SliderTickRate:2

[Events]
//Background and Video events
0,0,"cropped-1920-1080-732402.png",0,0
//Break Periods
//Storyboard Layer 0 (Background)
//Storyboard Layer 1 (Fail)
//Storyboard Layer 2 (Pass)
//Storyboard Layer 3 (Foreground)
//Storyboard Sound Samples

[TimingPoints]
85,582.52427184466,4,2,1,40,1,0
958,-100,4,2,1,60,0,0
1250,582.52427184466,4,2,1,40,1,0
19599,-100,4,2,1,60,0,0
19745,-100,4,2,1,40,0,0
28919,-100,4,2,1,60,0,0
29065,-100,4,2,1,40,0,0
36201,-100,4,2,1,60,0,0
36347,-100,4,2,1,40,0,0
40861,-100,4,2,1,60,0,0
41007,-100,4,2,1,40,0,0
42026,-100,4,2,1,60,0,0
42172,-100,4,2,1,40,0,0

[Colours]
Combo1 : 255,128,0
Combo2 : 224,78,73
Combo3 : 128,0,0
Combo4 : 186,116,116

[HitObjects]
208,80,85,6,0,L|72:96,1,110
376,296,958,2,0,L|136:288,1,220,6|0,0:0|0:0,0:0:0:0:
312,184,1832,2,0,L|344:48,1,110
128,40,2415,2,0,L|0:48,2,110
376,104,3288,6,0,P|440:176|360:272,1,220,2|0,0:0|0:0,0:0:0:0:
184,336,4162,2,0,L|72:336,1,110
296,240,4745,2,0,L|176:240,1,110
48,240,5327,1,0,0:0:0:0:
344,80,5618,6,0,P|400:128|328:248,1,220,2|0,0:0|0:0,0:0:0:0:
224,248,6492,1,0,0:0:0:0:
408,344,6783,2,0,L|424:224,1,110
256,192,7366,2,0,L|128:184,1,110
416,320,7949,6,0,P|472:240|384:152,1,220,2|0,0:0|0:0,0:0:0:0:
192,112,8822,2,0,L|64:120,1,110
264,48,9405,2,0,L|400:56,1,110
208,128,9987,1,0,0:0:0:0:
480,232,10279,6,0,L|248:248,1,220,2|0,0:0|0:0,0:0:0:0:
448,352,11152,2,0,L|456:232,1,110
264,152,11735,2,0,L|400:144,1,110
512,128,12317,1,0,0:0:0:0:
112,56,12609,6,0,P|56:160|144:240,1,220,2|0,0:0|0:0,0:0:0:0:
256,288,13483,2,0,L|376:280,1,110
144,232,14065,2,0,L|24:240,2,110
368,224,14939,6,0,P|424:144|328:56,1,220,2|0,0:0|0:0,0:0:0:0:
88,120,16104,2,0,P|16:192|112:272,1,220,2|0,0:0|0:0,0:0:0:0:
480,320,17269,2,0,L|224:336,1,220,2|0,0:0|0:0,0:0:0:0:
136,272,18143,1,0,0:0:0:0:
368,320,18725,2,0,L|224:336,1,110,0|0,0:0|0:0,0:0:0:0:
480,304,19308,1,0,0:0:0:0:
72,272,19599,6,0,P|24:208|96:96,1,220,6|0,0:0|0:0,0:0:0:0:
248,56,20473,2,0,L|360:88,1,110
144,144,21055,2,0,L|264:176,1,110
40,208,21638,1,0,0:0:0:0:
416,328,21929,6,0,P|472:256|392:160,1,220,2|0,0:0|0:0,0:0:0:0:
192,128,22803,2,0,L|32:144,1,110
336,72,23385,1,0,0:0:0:0:
208,72,23677,1,0,0:0:0:0:
440,72,23968,1,0,0:0:0:0:
80,304,24259,6,0,P|16:216|96:136,1,220,2|0,0:0|0:0,0:0:0:0:
376,160,25424,2,0,L|256:160,1,110
376,72,26007,2,0,L|256:72,1,110
48,56,26589,2,0,P|16:112|96:224,1,220,2|0,0:0|0:0,0:0:0:0:
232,216,27463,2,0,L|344:216,1,110
144,288,28046,1,0,0:0:0:0:
288,288,28337,1,0,0:0:0:0:
80,288,28628,1,0,0:0:0:0:
432,288,28919,6,0,P|504:208|408:136,1,220,6|0,0:0|0:0,0:0:0:0:
336,120,29793,1,0,0:0:0:0:
128,248,30084,2,0,L|360:240,1,220
472,232,30958,1,0,0:0:0:0:
288,160,31249,6,0,L|416:160,1,110,2|0,0:0|0:0,0:0:0:0:
160,112,31832,2,0,L|48:112,1,110,0|0,0:0|0:0,0:0:0:0:
240,56,32415,2,0,L|472:56,2,220,2|0|2,0:0|0:0|0:0,0:0:0:0:
360,96,33871,5,0,0:0:0:0:
448,153,34162,1,0,0:0:0:0:
452,259,34453,1,0,0:0:0:0:
368,322,34744,1,0,0:0:0:0:
232,352,35036,2,0,L|112:352,2,110,0|0|2,0:0|0:0|0:0,0:0:0:0:
48,304,35910,1,0,0:0:0:0:
464,208,36201,6,0,L|480:64,1,110,4|0,0:0|0:0,0:0:0:0:
344,24,36783,1,0,0:0:0:0:
120,136,37075,2,0,L|136:256,1,110,2|0,0:0|0:0,0:0:0:0:
328,256,37657,2,0,L|312:368,1,110,2|0,0:0|0:0,0:0:0:0:
176,296,38240,1,2,0:0:0:0:
400,224,38531,6,0,L|416:88,1,110
280,56,39114,2,0,L|408:64,1,110
208,144,39696,2,0,L|88:152,1,110,0|0,0:0|0:0,0:0:0:0:
344,200,40279,2,0,L|472:208,1,110,0|0,0:0|0:0,0:0:0:0:
64,264,40861,5,4,0:0:0:0:
464,296,42026,1,4,0:0:0:0:
