osu file format v14

[General]
AudioFilename: I WishWJSN(Cosmic Girls) Music Box.mp3
AudioLeadIn: 0
PreviewTime: 1738
Countdown: 1
SampleSet: Soft
StackLeniency: 0.7
Mode: 2
LetterboxInBreaks: 1
WidescreenStoryboard: 1

[Editor]
Bookmarks: 57038
DistanceSpacing: 0.5
BeatDivisor: 4
GridSize: 8
TimelineZoom: 1

[Metadata]
Title:I Wish
TitleUnicode:너에게 닿기를
Artist:R3 Music Box
ArtistUnicode:R3 Music Box
Creator:Paranoid Grapes
Version:Wish
Source:
Tags:cosmic girls starship entertainment cosmic girls FROM. wjsn 우주소녀 seola 설아 xuan yi 선의 bona 보나 exy 엑시 soobin 수빈 luda 루다 dawon 다원 eunseo 은서 chengxiao 성소 meiqi 미기 yeoreum 여름 dayoung 다영 yeonjung 연정
BeatmapID:1253024
BeatmapSetID:592165

[Difficulty]
HPDrainRate:6.5
CircleSize:4.5
OverallDifficulty:8.5
ApproachRate:8.5
SliderMultiplier:1.6
SliderTickRate:1

[Events]
//Background and Video events
0,0,"7218da15a449e134985f46abfcd9a43e (1).jpg",0,0
//Break Periods
//Storyboard Layer 0 (Background)
//Storyboard Layer 1 (Fail)
//Storyboard Layer 2 (Pass)
//Storyboard Layer 3 (Foreground)
//Storyboard Sound Samples

[TimingPoints]
44,342.857142857143,5,2,0,100,1,0
1738,337.078651685393,4,2,0,100,1,0
44904,-100,4,2,0,75,0,0
52889,-133.333333333333,4,2,0,75,0,0
53521,-200,4,2,0,75,0,0
54322,-100,4,2,0,5,0,0

[Colours]
Combo1 : 0,128,255
Combo2 : 255,128,255
Combo3 : 255,128,192
Combo4 : 255,0,128

[HitObjects]
288,264,44,6,0,L|472:264,1,160
208,264,901,1,0,0:0:0:0:
480,264,1415,1,0,0:0:0:0:
72,264,1738,6,0,P|48:192|128:168,1,160,2|0,0:0|0:0,0:0:0:0:
304,192,2412,2,0,L|472:192,1,160
392,192,2917,1,0,0:0:0:0:
136,192,3086,6,0,L|288:248,1,160,2|0,0:0|0:0,0:0:0:0:
176,136,3760,2,0,L|16:136,1,160
472,128,4434,1,2,0:0:0:0:
312,128,4771,1,0,0:0:0:0:
480,128,5108,1,0,0:0:0:0:
272,128,5445,1,0,0:0:0:0:
40,128,5782,6,0,L|208:128,1,160,2|0,0:0|0:0,0:0:0:0:
432,192,6457,2,0,P|472:224|472:344,1,160
32,247,7131,6,0,L|216:248,1,160,2|0,0:0|0:0,0:0:0:0:
480,240,7805,1,0,0:0:0:0:
272,240,8142,2,0,L|192:240,1,80
480,184,8479,6,0,L|304:176,1,160,2|0,0:0|0:0,0:0:0:0:
56,248,9153,2,0,P|112:176|184:200,1,160
472,136,9827,2,0,L|312:184,2,160,2|0|0,0:0|0:0|0:0,0:0:0:0:
40,137,10839,1,0,0:0:0:0:
280,128,11176,6,0,L|448:128,1,160,2|0,0:0|0:0,0:0:0:0:
352,88,11681,1,0,0:0:0:0:
112,96,11850,2,0,L|280:136,1,160
480,160,12524,1,2,0:0:0:0:
24,176,12861,6,0,L|208:176,1,160
392,168,13535,1,0,0:0:0:0:
144,168,13872,1,2,0:0:0:0:
376,88,14041,1,0,0:0:0:0:
152,104,14209,1,0,0:0:0:0:
400,88,14546,6,0,P|416:120|320:152,1,160
24,192,15221,2,0,L|200:192,2,160,2|0|0,0:0|0:0|0:0,0:0:0:0:
480,192,16232,2,0,P|488:240|384:272,1,160,2|0,0:0|0:0,0:0:0:0:
144,288,16737,2,0,P|88:232|120:168,1,160
368,160,17243,6,0,P|456:152|456:72,1,160,2|0,0:0|0:0,0:0:0:0:
32,104,17917,6,0,L|184:176,1,160,2|0,0:0|0:0,0:0:0:0:
400,192,18591,2,0,P|480:152|488:80,1,160
64,112,19266,2,0,P|24:176|104:208,1,160,2|0,0:0|0:0,0:0:0:0:
280,208,19940,1,0,0:0:0:0:
120,208,20277,5,0,0:0:0:0:
280,208,20445,1,0,0:0:0:0:
24,216,20614,1,2,0:0:0:0:
264,216,20951,5,0,0:0:0:0:
424,216,21120,1,0,0:0:0:0:
144,216,21288,1,2,0:0:0:0:
352,136,21625,5,0,0:0:0:0:
192,136,21794,1,0,0:0:0:0:
456,120,21962,2,0,L|208:72,2,240,2|0|0,0:0|0:0|0:0,0:0:0:0:
40,96,23311,6,0,P|16:152|88:248,1,160
464,56,23985,2,0,P|496:112|464:216,1,160,2|0,0:0|0:0,0:0:0:0:
208,168,24659,2,0,P|272:144|210:113,1,160
480,208,25333,2,0,P|472:296|400:304,1,160,2|0,0:0|0:0,0:0:0:0:
120,208,25839,2,0,L|40:208,1,80
472,200,26344,5,2,0:0:0:0:
272,208,26681,2,0,P|208:176|232:104,1,160
432,128,27355,1,0,0:0:0:0:
24,200,27693,2,0,L|168:272,2,160,2|0|0,0:0|0:0|0:0,0:0:0:0:
480,240,28704,6,0,L|320:240,1,160,2|0,0:0|0:0,0:0:0:0:
96,248,29378,2,0,P|32:208|56:120,1,160
488,144,30052,1,2,0:0:0:0:
32,136,30726,1,0,0:0:0:0:
472,144,31400,6,0,L|312:152,1,160,2|0,0:0|0:0,0:0:0:0:
48,152,32075,2,0,L|200:240,1,160
456,160,33086,2,0,P|488:200|432:304,1,160,2|0,0:0|0:0,0:0:0:0:
232,240,33760,1,0,0:0:0:0:
72,240,34266,5,0,0:0:0:0:
320,232,34434,2,0,L|488:232,1,160,2|0,0:0|0:0,0:0:0:0:
304,192,35108,1,0,0:0:0:0:
104,184,35445,5,2,0:0:0:0:
344,192,35614,1,0,0:0:0:0:
88,184,35782,2,0,P|144:184|224:272,1,160
32,240,36457,1,0,0:0:0:0:
456,224,36794,6,0,P|488:296|408:312,1,160,2|0,0:0|0:0,0:0:0:0:
264,312,37468,1,0,0:0:0:0:
48,296,37805,2,0,P|24:232|96:168,1,160,2|0,0:0|0:0,0:0:0:0:
304,176,38311,2,0,P|408:152|424:96,1,160
184,88,38816,2,0,P|64:112|32:136,1,160,2|0,0:0|0:0,0:0:0:0:
456,104,39490,6,0,P|488:152|392:192,1,160,2|0,0:0|0:0,0:0:0:0:
160,208,40164,2,0,P|32:144|32:128,1,160
496,144,40839,2,0,L|328:216,2,160,2|0|0,0:0|0:0|0:0,0:0:0:0:
336,136,41850,5,0,0:0:0:0:
112,136,42018,1,0,0:0:0:0:
376,136,42187,1,2,0:0:0:0:
192,136,42524,5,0,0:0:0:0:
416,136,42693,1,0,0:0:0:0:
152,136,42861,1,2,0:0:0:0:
264,136,43198,5,0,0:0:0:0:
496,136,43367,1,0,0:0:0:0:
264,136,43535,2,0,L|24:136,2,240,2|0|0,0:0|0:0|0:0,0:0:0:0:
432,168,44884,6,0,L|272:168,1,160
432,168,45558,1,0,0:0:0:0:
256,168,45895,1,0,0:0:0:0:
96,168,46063,1,2,0:0:0:0:
304,168,46569,6,0,L|480:168,1,160
304,168,47243,1,0,0:0:0:0:
464,168,47412,1,2,0:0:0:0:
248,168,47917,2,0,L|72:168,2,160
88,168,48760,1,0,0:0:0:0:
248,168,48929,1,2,0:0:0:0:
480,168,49266,6,0,L|320:168,2,160
32,176,50277,6,0,L|208:176,1,160
384,176,50951,1,0,0:0:0:0:
192,176,51288,1,0,0:0:0:0:
32,176,51457,1,2,0:0:0:0:
192,176,51625,1,0,0:0:0:0:
384,176,51962,6,0,L|208:176,1,160
384,176,52636,1,0,0:0:0:0:
224,176,52805,1,0,0:0:0:0:
496,176,52973,2,0,L|360:176,1,135.000005149841,2|0,0:0|0:0,0:0:0:0:
112,304,53690,2,0,L|208:304,1,90
256,192,54322,12,0,57018,0:0:0:0:
