osu file format v14

[General]
AudioFilename: I WishWJSN(Cosmic Girls) Music Box.mp3
AudioLeadIn: 0
PreviewTime: 1738
Countdown: 1
SampleSet: Soft
StackLeniency: 0.7
Mode: 2
LetterboxInBreaks: 1
WidescreenStoryboard: 1

[Editor]
Bookmarks: 57038
DistanceSpacing: 0.5
BeatDivisor: 8
GridSize: 8
TimelineZoom: 1

[Metadata]
Title:I Wish
TitleUnicode:너에게 닿기를
Artist:R3 Music Box
ArtistUnicode:R3 Music Box
Creator:Paranoid Grapes
Version:Platter
Source:
Tags:cosmic girls starship entertainment cosmic girls FROM. wjsn 우주소녀 seola 설아 xuan yi 선의 bona 보나 exy 엑시 soobin 수빈 luda 루다 dawon 다원 eunseo 은서 chengxiao 성소 meiqi 미기 yeoreum 여름 dayoung 다영 yeonjung 연정
BeatmapID:1253022
BeatmapSetID:592165

[Difficulty]
HPDrainRate:6
CircleSize:4
OverallDifficulty:7.5
ApproachRate:7.5
SliderMultiplier:1.4
SliderTickRate:1

[Events]
//Background and Video events
0,0,"7218da15a449e134985f46abfcd9a43e (1).jpg",0,0
//Break Periods
//Storyboard Layer 0 (Background)
//Storyboard Layer 1 (Fail)
//Storyboard Layer 2 (Pass)
//Storyboard Layer 3 (Foreground)
//Storyboard Sound Samples

[TimingPoints]
44,342.857142857143,5,2,0,100,1,0
1738,337.078651685393,4,2,0,100,1,0
44904,-100,4,2,0,75,0,0
54322,-100,4,2,0,5,0,0

[Colours]
Combo1 : 0,128,255
Combo2 : 255,128,255
Combo3 : 255,128,192
Combo4 : 255,0,128

[HitObjects]
256,288,44,6,0,L|400:288,1,140
176,288,901,1,0,0:0:0:0:
480,288,1415,1,0,0:0:0:0:
56,192,1738,6,0,P|40:152|128:120,1,140,2|0,0:0|0:0,0:0:0:0:
256,104,2412,2,0,L|400:104,1,140
280,104,2917,1,0,0:0:0:0:
136,120,3086,6,0,L|272:200,1,140,2|0,0:0|0:0,0:0:0:0:
456,184,3760,2,0,P|496:248|440:280,1,140
192,248,4434,6,0,L|24:248,2,140,2|0|0,0:0|0:0|0:0,0:0:0:0:
368,256,5445,2,0,P|424:256|464:184,1,140
216,144,6120,2,0,L|48:144,2,140,2|0|0,0:0|0:0|0:0,0:0:0:0:
424,200,7131,6,0,P|400:144|312:160,1,140,2|0,0:0|0:0,0:0:0:0:
112,128,7805,2,0,L|252:128,1,140
360,128,8311,1,0,0:0:0:0:
488,128,8479,5,2,0:0:0:0:
288,128,8816,1,0,0:0:0:0:
488,128,9153,1,0,0:0:0:0:
256,128,9490,1,0,0:0:0:0:
464,128,9827,6,0,L|324:128,1,140,2|0,0:0|0:0,0:0:0:0:
56,120,10502,1,0,0:0:0:0:
456,128,10839,2,0,B|472:272,1,140,2|0,0:0|0:0,0:0:0:0:
248,232,11681,2,0,P|200:288|248:328,1,140
336,328,12187,1,0,0:0:0:0:
112,320,12524,6,0,P|32:256|16:200,1,140,2|0,0:0|0:0,0:0:0:0:
456,216,13198,1,0,0:0:0:0:
272,216,13535,1,0,0:0:0:0:
448,208,13872,5,2,0:0:0:0:
360,208,14041,1,0,0:0:0:0:
448,208,14209,1,0,0:0:0:0:
208,216,14546,2,0,L|64:216,1,140
472,208,15221,6,0,B|512:168|472:104|416:128,1,140,2|0,0:0|0:0,0:0:0:0:
264,128,15895,1,0,0:0:0:0:
494,128,16232,2,0,L|270:128,1,210
160,144,16906,6,0,L|304:144,1,140
496,144,17580,1,0,0:0:0:0:
40,168,17917,6,0,P|24:192|104:248,1,140,2|0,0:0|0:0,0:0:0:0:
320,256,18591,2,0,L|440:336,1,140
160,288,19266,6,0,L|304:248,1,140,2|0,0:0|0:0,0:0:0:0:
480,216,19940,1,0,0:0:0:0:
80,120,20277,5,0,0:0:0:0:
24,120,20445,1,0,0:0:0:0:
112,120,20614,1,2,0:0:0:0:
344,120,20951,5,0,0:0:0:0:
400,120,21120,1,0,0:0:0:0:
312,120,21288,1,2,0:0:0:0:
88,120,21625,5,0,0:0:0:0:
144,120,21794,1,0,0:0:0:0:
208,120,21962,2,0,P|304:160|272:272,1,210,2|0,0:0|0:0,0:0:0:0:
48,248,22973,1,0,0:0:0:0:
295,251,23311,6,0,P|376:256|408:328,1,140,2|0,0:0|0:0,0:0:0:0:
184,248,23985,2,0,L|32:248,1,140
472,264,24659,6,0,P|496:208|416:160,1,140,2|0,0:0|0:0,0:0:0:0:
312,136,25333,2,0,L|160:136,1,140
320,136,25839,2,0,P|416:144|440:256,1,210,2|0,0:0|0:0,0:0:0:0:
256,248,26681,5,0,0:0:0:0:
96,248,27018,1,0,0:0:0:0:
232,248,27355,1,0,0:0:0:0:
392,208,27693,6,0,L|240:208,1,140,2|0,0:0|0:0,0:0:0:0:
64,208,28367,1,0,0:0:0:0:
464,216,28704,6,0,P|496:160|424:105,1,140,2|0,0:0|0:0,0:0:0:0:
200,112,29378,2,0,L|56:112,1,140
488,104,30052,5,2,0:0:0:0:
200,112,30726,1,0,0:0:0:0:
488,104,31400,6,0,L|336:104,1,140,2|0,0:0|0:0,0:0:0:0:
168,112,32075,1,0,0:0:0:0:
400,112,32412,2,0,P|464:120|488:200,1,140
224,192,33086,6,0,L|80:192,1,140,2|0,0:0|0:0,0:0:0:0:
272,192,33760,2,0,L|432:192,1,140
328,192,34266,1,0,0:0:0:0:
64,200,34434,2,0,P|32:160|96:120,1,140,2|0,0:0|0:0,0:0:0:0:
272,120,35108,5,0,0:0:0:0:
448,120,35445,1,2,0:0:0:0:
392,120,35614,1,0,0:0:0:0:
336,120,35782,1,0,0:0:0:0:
128,112,36120,6,0,P|72:120|40:208,1,140
456,112,36794,2,0,P|480:152|400:176,1,140,2|0,0:0|0:0,0:0:0:0:
240,192,37468,1,0,0:0:0:0:
56,216,37805,6,0,P|42:279|101:307,1,140,2|0,0:0|0:0,0:0:0:0:
224,312,38311,2,0,L|384:312,1,140
128,272,38816,2,0,P|80:272|48:192,1,140,2|0,0:0|0:0,0:0:0:0:
480,128,39490,6,0,P|488:180|416:216,1,140,2|0,0:0|0:0,0:0:0:0:
208,200,40164,2,0,L|64:200,1,140
240,192,40839,6,0,P|288:144|240:112,1,140,2|0,0:0|0:0,0:0:0:0:
48,88,41513,1,0,0:0:0:0:
456,96,41850,5,0,0:0:0:0:
504,96,42018,1,0,0:0:0:0:
408,96,42187,1,2,0:0:0:0:
216,128,42524,5,0,0:0:0:0:
168,128,42693,1,0,0:0:0:0:
264,128,42861,1,2,0:0:0:0:
448,128,43198,5,0,0:0:0:0:
504,128,43367,1,0,0:0:0:0:
448,216,43535,2,0,L|248:288,2,210,2|0|0,0:0|0:0|0:0,0:0:0:0:
40,152,44884,6,0,P|32:208|104:232,1,140,2|0,0:0|0:0,0:0:0:0:
296,232,45558,2,0,L|448:232,1,140
312,232,46063,2,0,L|96:240,1,210
200,232,46906,2,0,L|344:232,1,140
200,232,47412,1,0,0:0:0:0:
72,232,47580,6,0,L|211:233,1,140,2|0,0:0|0:0,0:0:0:0:
340,232,48254,2,0,L|196:232,1,140
320,240,48760,2,0,B|460:240|460:240|388:240,1,210
176,224,49603,2,0,L|24:224,1,140
232,224,50277,6,0,L|376:224,1,140,2|0,0:0|0:0,0:0:0:0:
208,224,50951,2,0,L|56:224,1,140
168,224,51457,2,0,L|392:224,1,210
256,168,52299,2,0,L|112:168,1,140
248,168,52805,1,0,0:0:0:0:
396,168,52973,6,0,L|256:168,1,140,2|0,0:0|0:0,0:0:0:0:
40,160,53690,1,0,0:0:0:0:
192,160,54069,1,0,0:0:0:0:
256,192,54322,12,0,57018,0:0:0:0:
