osu file format v14

[General]
AudioFilename: I WishWJSN(Cosmic Girls) Music Box.mp3
AudioLeadIn: 0
PreviewTime: 1738
Countdown: 1
SampleSet: Soft
StackLeniency: 0.7
Mode: 2
LetterboxInBreaks: 1
WidescreenStoryboard: 0

[Editor]
Bookmarks: 57038
DistanceSpacing: 0.5
BeatDivisor: 4
GridSize: 8
TimelineZoom: 1

[Metadata]
Title:I Wish
TitleUnicode:너에게 닿기를
Artist:R3 Music Box
ArtistUnicode:R3 Music Box
Creator:Paranoid Grapes
Version:Salad
Source:
Tags:cosmic girls starship entertainment cosmic girls FROM. wjsn 우주소녀 seola 설아 xuan yi 선의 bona 보나 exy 엑시 soobin 수빈 luda 루다 dawon 다원 eunseo 은서 chengxiao 성소 meiqi 미기 yeoreum 여름 dayoung 다영 yeonjung 연정
BeatmapID:1253023
BeatmapSetID:592165

[Difficulty]
HPDrainRate:5
CircleSize:3.5
OverallDifficulty:6.5
ApproachRate:6.5
SliderMultiplier:1.2
SliderTickRate:1

[Events]
//Background and Video events
0,0,"7218da15a449e134985f46abfcd9a43e (1).jpg",0,0
//Break Periods
//Storyboard Layer 0 (Background)
//Storyboard Layer 1 (Fail)
//Storyboard Layer 2 (Pass)
//Storyboard Layer 3 (Foreground)
//Storyboard Sound Samples

[TimingPoints]
44,342.857142857143,5,2,0,60,1,0
1738,337.078651685393,4,2,0,60,1,0
44904,-100,4,2,0,50,0,0
54342,-100,4,2,0,5,0,0

[Colours]
Combo1 : 0,128,255
Combo2 : 255,128,255
Combo3 : 255,128,192
Combo4 : 255,0,128

[HitObjects]
264,272,44,6,0,L|408:272,1,120
224,272,901,1,0,0:0:0:0:
432,272,1415,1,0,0:0:0:0:
144,272,1738,6,0,P|104:272|80:200,1,120,2|0,0:0|0:0,0:0:0:0:
216,272,2412,2,0,L|344:272,1,120
160,272,3086,6,0,L|304:272,1,120,2|0,0:0|0:0,0:0:0:0:
416,272,3760,2,0,P|416:224|344:208,1,120
88,216,4434,6,0,P|40:208|24:144,2,120,2|0|0,0:0|0:0|0:0,0:0:0:0:
224,216,5445,2,0,P|288:224|296:288,1,120,2|0,0:0|0:0,0:0:0:0:
144,216,6120,5,0,0:0:0:0:
296,216,6457,2,0,L|176:216,1,120
432,216,7131,6,0,B|496:224|488:160|432:136,1,120,2|0,0:0|0:0,0:0:0:0:
288,128,7805,1,0,0:0:0:0:
152,128,8142,2,0,L|80:128,1,60
160,128,8479,6,0,L|296:128,1,120,2|0,0:0|0:0,0:0:0:0:
440,128,9153,2,0,B|464:184|464:184|384:184,1,120
128,248,9827,6,0,P|72:240|32:176,2,120,2|0|0,0:0|0:0|0:0,0:0:0:0:
224,248,10839,1,0,0:0:0:0:
360,136,11176,2,0,P|440:144|480:232,2,180,2|0|0,0:0|0:0|0:0,0:0:0:0:
192,144,12524,5,0,0:0:0:0:
480,152,12861,2,0,P|488:192|416:224,1,120,2|0,0:0|0:0,0:0:0:0:
304,224,13535,1,0,0:0:0:0:
24,208,13872,2,0,L|8:144,2,60,2|0|0,0:0|0:0|0:0,0:0:0:0:
224,224,14546,6,0,L|368:224,1,120
64,224,15221,2,0,P|32:192|48:120,2,120,2|0|0,0:0|0:0|0:0,0:0:0:0:
264,240,16232,6,0,B|464:240,1,180,2|0,0:0|0:0,0:0:0:0:
248,224,17243,2,0,L|136:288,1,120
416,224,17917,6,0,P|480:184|496:128,2,120,2|0|0,0:0|0:0|0:0,0:0:0:0:
208,224,18929,1,0,0:0:0:0:
480,240,19266,2,0,P|496:192|488:104,2,120,2|0|0,0:0|0:0|0:0,0:0:0:0:
280,224,20277,6,0,L|216:224,2,60,0|0|2,0:0|0:0|0:0,0:0:0:0:
120,192,20951,2,0,L|48:192,2,60,0|0|2,0:0|0:0|0:0,0:0:0:0:
296,160,21625,2,0,L|376:160,1,60
416,160,21962,6,0,L|208:160,2,180,2|0|0,0:0|0:0|0:0,0:0:0:0:
280,144,23311,6,0,L|152:144,1,120,2|0,0:0|0:0,0:0:0:0:
312,144,23985,2,0,P|368:160|384:240,1,120
112,192,24659,6,0,P|56:208|40:272,1,120,2|0,0:0|0:0,0:0:0:0:
184,200,25333,2,0,L|320:200,1,120
364,200,25839,6,0,L|172:200,1,180,2|0,0:0|0:0,0:0:0:0:
312,200,26681,2,0,L|440:200,1,120
320,160,27355,1,2,0:0:0:0:
160,160,27693,2,0,L|296:160,2,120
424,176,28704,6,0,P|456:168|464:72,1,120,2|0,0:0|0:0,0:0:0:0:
344,168,29378,2,0,L|200:168,1,120
64,168,30052,1,2,0:0:0:0:
320,168,30726,1,0,0:0:0:0:
64,168,31400,6,0,L|192:168,1,120,2|0,0:0|0:0,0:0:0:0:
320,168,32075,1,0,0:0:0:0:
128,168,32412,1,0,0:0:0:0:
320,168,33086,6,0,L|448:168,1,120,2|0,0:0|0:0,0:0:0:0:
336,168,33760,1,0,0:0:0:0:
32,160,34266,6,0,L|112:160,1,60,2|0,0:0|0:0,0:0:0:0:
272,160,34771,2,0,L|392:160,1,120
248,160,35445,2,0,L|184:160,2,60,2|0|0,0:0|0:0|0:0,0:0:0:0:
376,160,36120,6,0,P|424:160|456:240,1,120
168,160,36794,2,0,L|48:200,2,120,2|0|0,0:0|0:0|0:0,0:0:0:0:
352,160,37805,2,0,L|160:160,1,180,2|0,0:0|0:0,0:0:0:0:
32,160,38816,2,0,L|168:160,1,120
424,168,39490,6,0,P|472:176|488:248,2,120,2|0|0,0:0|0:0|0:0,0:0:0:0:
240,168,40502,1,0,0:0:0:0:
384,176,40839,2,0,L|264:176,1,120,2|0,0:0|0:0,0:0:0:0:
104,184,41513,1,0,0:0:0:0:
264,176,41850,6,0,L|328:176,2,60,0|0|2,0:0|0:0|0:0,0:0:0:0:
120,176,42524,2,0,L|56:176,2,60,0|0|2,0:0|0:0|0:0,0:0:0:0:
272,176,43198,2,0,L|336:176,1,60
400,176,43535,2,0,L|216:176,2,180,2|0|0,0:0|0:0|0:0,0:0:0:0:
136,112,44884,6,0,L|16:160,1,120,2|0,0:0|0:0,0:0:0:0:
176,120,45558,1,0,0:0:0:0:
296,120,45895,2,0,L|376:120,1,60,0|2,0:0|0:0,0:0:0:0:
496,152,46569,6,0,L|360:152,1,120
184,120,47243,2,0,L|256:120,1,60,0|2,0:0|0:0,0:0:0:0:
56,120,47917,6,0,L|192:120,1,120
320,120,48591,2,0,L|392:120,1,60,0|2,0:0|0:0,0:0:0:0:
192,120,49266,6,0,L|48:120,2,120
448,120,50277,2,0,P|472:168|408:184,1,120,2|0,0:0|0:0,0:0:0:0:
264,192,50951,1,0,0:0:0:0:
423,193,51288,2,0,L|335:193,1,60,0|2,0:0|0:0,0:0:0:0:
184,192,51962,6,0,L|56:192,2,120
264,192,52805,1,0,0:0:0:0:
344,192,52973,2,0,L|464:192,1,120,2|0,0:0|0:0,0:0:0:0:
312,192,53648,2,0,L|160:192,1,150
256,192,54406,12,0,57018,0:0:0:0:
