osu file format v14

[General]
AudioFilename: I WishWJSN(Cosmic Girls) Music Box.mp3
AudioLeadIn: 0
PreviewTime: 1738
Countdown: 1
SampleSet: Soft
StackLeniency: 0.7
Mode: 2
LetterboxInBreaks: 1
WidescreenStoryboard: 1

[Editor]
Bookmarks: 57038
DistanceSpacing: 0.5
BeatDivisor: 4
GridSize: 8
TimelineZoom: 1

[Metadata]
Title:I Wish
TitleUnicode:너에게 닿기를
Artist:R3 Music Box
ArtistUnicode:R3 Music Box
Creator:Paranoid Grapes
Version:Cup
Source:
Tags:cosmic girls starship entertainment cosmic girls FROM. wjsn 우주소녀 seola 설아 xuan yi 선의 bona 보나 exy 엑시 soobin 수빈 luda 루다 dawon 다원 eunseo 은서 chengxiao 성소 meiqi 미기 yeoreum 여름 dayoung 다영 yeonjung 연정
BeatmapID:1253021
BeatmapSetID:592165

[Difficulty]
HPDrainRate:4
CircleSize:3
OverallDifficulty:5.5
ApproachRate:5.5
SliderMultiplier:1
SliderTickRate:1

[Events]
//Background and Video events
0,0,"7218da15a449e134985f46abfcd9a43e (1).jpg",0,0
//Break Periods
//Storyboard Layer 0 (Background)
//Storyboard Layer 1 (Fail)
//Storyboard Layer 2 (Pass)
//Storyboard Layer 3 (Foreground)
//Storyboard Sound Samples

[TimingPoints]
44,342.857142857143,5,2,0,60,1,0
1738,337.078651685393,4,2,0,60,1,0
44904,-100,4,2,0,50,0,0
54322,-100,4,2,0,5,0,0

[Colours]
Combo1 : 0,128,255
Combo2 : 255,128,255
Combo3 : 255,128,192
Combo4 : 255,0,128

[HitObjects]
288,304,44,6,0,L|304:192,1,100
192,184,901,1,0,0:0:0:0:
384,192,1415,1,0,0:0:0:0:
232,184,1738,6,0,L|128:184,1,100,2|0,0:0|0:0,0:0:0:0:
232,136,2412,1,0,0:0:0:0:
384,136,2749,2,0,L|488:136,2,100,0|2|0,0:0|0:0|0:0,0:0:0:0:
224,136,3760,2,0,L|120:136,1,100
280,184,4434,6,0,L|384:184,2,100,2|0|0,0:0|0:0|0:0,0:0:0:0:
408,184,5445,2,0,P|448:240|344:256,1,200
216,256,6457,2,0,L|104:256,1,100
272,248,7131,6,0,L|392:248,1,100,2|0,0:0|0:0,0:0:0:0:
464,248,7805,2,0,L|360:248,1,100
224,208,8479,2,0,L|328:208,1,100,2|0,0:0|0:0,0:0:0:0:
232,152,9153,2,0,L|112:152,1,100
288,104,9827,6,0,L|400:104,2,100,2|0|0,0:0|0:0|0:0,0:0:0:0:
112,104,10839,1,0,0:0:0:0:
256,96,11176,2,0,L|408:152,2,150,2|0|0,0:0|0:0|0:0,0:0:0:0:
112,96,12524,1,0,0:0:0:0:
272,96,12861,6,0,L|392:96,1,100,2|0,0:0|0:0,0:0:0:0:
248,96,13535,1,0,0:0:0:0:
120,96,13872,2,0,L|48:96,2,50,2|0|0,0:0|0:0|0:0,0:0:0:0:
272,96,14546,2,0,L|392:96,1,100
220,96,15221,6,0,L|100:96,2,100,2|0|0,0:0|0:0|0:0,0:0:0:0:
368,104,16232,2,0,L|216:176,2,150,2|0|0,0:0|0:0|0:0,0:0:0:0:
248,96,17580,1,0,0:0:0:0:
88,96,17917,6,0,L|200:96,1,100,2|0,0:0|0:0,0:0:0:0:
336,96,18591,2,0,L|448:96,1,100
304,96,19266,2,0,P|232:96|144:192,1,200,2|0,0:0|0:0,0:0:0:0:
296,192,20277,5,0,0:0:0:0:
352,192,20445,1,0,0:0:0:0:
408,192,20614,1,2,0:0:0:0:
296,144,20951,5,0,0:0:0:0:
240,144,21120,1,0,0:0:0:0:
184,144,21288,1,2,0:0:0:0:
72,208,21625,5,0,0:0:0:0:
128,208,21794,1,0,0:0:0:0:
184,208,21962,2,0,L|328:264,2,150,2|0|0,0:0|0:0|0:0,0:0:0:0:
304,200,23311,6,0,L|416:200,1,100,2|0,0:0|0:0,0:0:0:0:
304,160,23985,1,0,0:0:0:0:
112,160,24659,1,0,0:0:0:0:
304,152,25333,1,0,0:0:0:0:
112,152,25839,6,0,L|280:152,1,150,2|0,0:0|0:0,0:0:0:0:
362,152,26681,2,0,L|258:152,1,100
64,152,27693,2,0,L|184:152,2,100,2|0|0,0:0|0:0|0:0,0:0:0:0:
208,152,28704,6,0,L|330:152,1,100,2|0,0:0|0:0,0:0:0:0:
472,152,29378,1,0,0:0:0:0:
264,152,30052,1,0,0:0:0:0:
456,152,30726,1,0,0:0:0:0:
272,152,31400,6,0,L|160:152,1,100,2|0,0:0|0:0,0:0:0:0:
32,152,32075,1,0,0:0:0:0:
184,152,32412,1,0,0:0:0:0:
400,152,33086,6,0,L|288:152,1,100,2|0,0:0|0:0,0:0:0:0:
160,152,33760,1,0,0:0:0:0:
336,152,34434,2,0,L|456:152,2,100,2|0|0,0:0|0:0|0:0,0:0:0:0:
200,152,35445,2,0,L|144:152,2,50,2|0|0,0:0|0:0|0:0,0:0:0:0:
328,152,36120,2,0,L|448:152,1,100
280,152,36794,6,0,L|176:152,2,100,2|0|0,0:0|0:0|0:0,0:0:0:0:
432,152,37805,1,0,0:0:0:0:
256,152,38311,1,0,0:0:0:0:
432,152,38816,2,0,L|328:152,1,100
176,152,39490,6,0,P|104:200|184:256,1,200,2|0,0:0|0:0,0:0:0:0:
368,264,40839,1,2,0:0:0:0:
192,264,41850,6,0,L|120:264,2,50,0|0|2,0:0|0:0|0:0,0:0:0:0:
336,264,42524,2,0,L|400:264,2,50,0|0|2,0:0|0:0|0:0,0:0:0:0:
192,264,43198,2,0,L|136:264,1,50
192,256,43535,2,0,L|352:224,2,150,2|0|0,0:0|0:0|0:0,0:0:0:0:
344,256,44884,6,0,L|456:256,1,100,2|0,0:0|0:0,0:0:0:0:
328,200,45558,2,0,L|224:200,1,100
104,160,46232,2,0,L|216:160,1,100,2|0,0:0|0:0,0:0:0:0:
328,160,46906,1,0,0:0:0:0:
456,160,47243,1,0,0:0:0:0:
328,160,47580,6,0,L|224:160,1,100,2|0,0:0|0:0,0:0:0:0:
104,160,48254,2,0,L|208:160,1,100
336,160,48929,2,0,L|440:160,1,100,2|0,0:0|0:0,0:0:0:0:
320,160,49603,1,0,0:0:0:0:
176,160,49940,1,0,0:0:0:0:
296,160,50277,6,0,L|408:160,1,100,2|0,0:0|0:0,0:0:0:0:
280,192,50951,2,0,L|168:192,1,100
64,192,51625,2,0,L|176:192,1,100,2|0,0:0|0:0,0:0:0:0:
312,192,52299,1,0,0:0:0:0:
448,192,52636,1,0,0:0:0:0:
304,192,52973,6,0,L|200:192,1,100,2|0,0:0|0:0,0:0:0:0:
80,192,53648,2,0,L|208:192,1,125
256,192,54406,12,0,57018,0:0:0:0:
