osu file format v14

[General]
AudioFilename: audio.mp3
AudioLeadIn: 0
PreviewTime: 0
Countdown: 0
SampleSet: Soft
StackLeniency: 0.7
Mode: 0
LetterboxInBreaks: 0
WidescreenStoryboard: 0

[Editor]
DistanceSpacing: 1.2
BeatDivisor: 4
GridSize: 32
TimelineZoom: 1

[Metadata]
Title:Hoshikuzu Interlude
TitleUnicode:Hoshikuzu Interlude
Artist:R3 Music Box
ArtistUnicode:R3 Music Box
Creator:Sotarks
Version:Easy
Source:天体のメソッド
Tags:fhána fhana sora no celestial method ending ED shini -sh1n1-
BeatmapID:1494300
BeatmapSetID:706739

[Difficulty]
HPDrainRate:2
CircleSize:2.8
OverallDifficulty:2
ApproachRate:2
SliderMultiplier:0.92
SliderTickRate:1

[Events]
//Background and Video events
0,0,"BG.jpg",0,0
//Break Periods
//Storyboard Layer 0 (Background)
//Storyboard Layer 1 (Fail)
//Storyboard Layer 2 (Pass)
//Storyboard Layer 3 (Foreground)
//Storyboard Sound Samples

[TimingPoints]
0,652.173913043478,4,2,22,32,1,0
53514,789.473684210526,4,2,22,32,1,0
54328,923.076923076923,4,2,22,32,1,0
54789,535.714285714286,4,2,22,32,1,0
55005,535.714285714286,4,2,22,32,1,0

[Colours]
Combo1 : 228,81,88
Combo2 : 240,125,26
Combo3 : 83,70,153
SliderBorder : 255,255,255
SliderTrackOverride : 23,25,51

[HitObjects]
144,95,0,6,0,P|188:84|247:106,1,92,2|2,0:0|0:0,0:0:0:0:
273,131,978,1,2,0:0:0:0:
312,170,1304,2,0,P|346:182|388:175,2,69,2|2|2,0:0|0:0|0:0,0:0:0:0:
272,208,2608,2,0,L|208:215,1,46,2|2,0:0|0:0,0:0:0:0:
168,192,3260,1,2,0:0:0:0:
104,138,3749,2,0,P|86:176|158:274,1,161,2|0,0:0|0:0,0:0:0:0:
192,290,5217,6,0,L|187:348,2,46,2|2|2,0:0|0:0|0:0,0:0:0:0:
223,244,6195,1,2,0:0:0:0:
243,192,6521,2,0,L|247:111,2,69,2|2|2,0:0|0:0|0:0,0:0:0:0:
270,240,7826,2,0,P|304:259|342:254,2,69,2|2|2,0:0|0:0|0:0,0:0:0:0:
243,192,9130,2,0,L|96:207,1,138,2|2,0:0|0:0,0:0:0:0:
60,237,10434,6,0,L|57:290,2,46,2|2|2,0:0|0:0|0:0,0:0:0:0:
43,184,11413,1,2,0:0:0:0:
68,134,11739,2,0,L|72:60,2,69,2|2|2,0:0|0:0|0:0,0:0:0:0:
120,150,13043,2,0,P|154:151|201:136,2,69,2|2|2,0:0|0:0|0:0,0:0:0:0:
68,134,14347,2,0,L|55:282,1,138,2|2,0:0|0:0,0:0:0:0:
49,326,15652,5,2,0:0:0:0:
129,345,16141,2,0,L|207:335,1,69,2|2,0:0|0:0,0:0:0:0:
239,300,16956,2,0,P|283:288|327:299,1,92,2|2,0:0|0:0,0:0:0:0:
424,352,18260,2,0,P|437:289|391:211,1,138,2|2,0:0|0:0,0:0:0:0:
376,178,19565,2,0,P|363:111|393:50,1,138,2|2,0:0|0:0,0:0:0:0:
339,36,20869,6,0,L|233:26,2,92,2|2|2,0:0|0:0|0:0,0:0:0:0:
375,110,22663,2,0,P|388:157|381:192,1,69,2|2,0:0|0:0,0:0:0:0:
357,224,23478,2,0,P|344:271|351:306,2,69,2|2|2,0:0|0:0|0:0,0:0:0:0:
320,182,24782,2,0,B|230:194|230:194|168:169,1,138,2|0,0:0|0:0,0:0:0:0:
136,152,26086,6,0,P|94:151|79:160,1,46,2|2,0:0|0:0,0:0:0:0:
59,197,26739,2,0,L|55:248,1,46,2|2,0:0|0:0,0:0:0:0:
82,290,27391,2,0,L|3:298,2,69,2|2|2,0:0|0:0|0:0,0:0:0:0:
132,312,28695,1,2,0:0:0:0:
204,271,29184,1,2,0:0:0:0:
271,318,29673,2,0,L|325:321,1,46,2|0,0:0|0:0,0:0:0:0:
451,223,30978,1,2,0:0:0:0:
436,169,31304,6,0,P|423:137|391:113,1,69,2|2,0:0|0:0,0:0:0:0:
321,81,32282,1,2,0:0:0:0:
270,102,32608,2,0,P|235:103|194:77,1,69,2|2,0:0|0:0,0:0:0:0:
130,51,33586,1,2,0:0:0:0:
89,88,33913,2,0,L|85:138,1,46,2|2,0:0|0:0,0:0:0:0:
122,174,34565,2,0,L|125:212,1,23,2|2,0:0|0:0,0:0:0:0:
107,249,35054,2,0,B|200:229|166:294|272:273,1,161,2|2,0:0|0:0,0:0:0:0:
300,236,36521,6,0,L|294:159,2,69,2|2|2,0:0|0:0|0:0,0:0:0:0:
341,273,37826,1,2,0:0:0:0:
438,221,38478,1,2,0:0:0:0:
464,113,39130,1,2,0:0:0:0:
312,45,40108,1,2,0:0:0:0:
276,86,40434,2,0,P|210:65|143:103,1,138,2|2,0:0|0:0,0:0:0:0:
119,138,41739,6,0,L|36:126,2,69,2|2|2,0:0|0:0|0:0,0:0:0:0:
156,178,43043,2,0,P|146:226|165:283,1,92,2|2,0:0|0:0,0:0:0:0:
262,296,44347,2,0,L|268:386,2,69,2|2|2,0:0|0:0|0:0,0:0:0:0:
284,245,45652,2,0,P|331:223|419:264,1,138,2|2,0:0|0:0,0:0:0:0:
460,267,46956,6,0,L|466:342,2,69,2|2|2,0:0|0:0|0:0,0:0:0:0:
494,223,48260,2,0,P|453:209|405:169,1,92,2|2,0:0|0:0,0:0:0:0:
381,135,49239,2,0,P|335:98|148:176,1,276,2|2,0:0|0:0,0:0:0:0:
130,214,51521,1,2,0:0:0:0:
137,268,51847,5,2,0:0:0:0:
256,192,52173,12,2,55005,0:0:0:0:
