osu file format v14

[General]
AudioFilename: audio.mp3
AudioLeadIn: 0
PreviewTime: 0
Countdown: 0
SampleSet: Soft
StackLeniency: 0.7
Mode: 0
LetterboxInBreaks: 0
WidescreenStoryboard: 0

[Editor]
DistanceSpacing: 1.4
BeatDivisor: 4
GridSize: 32
TimelineZoom: 1

[Metadata]
Title:Hoshikuzu Interlude
TitleUnicode:Hoshikuzu Interlude
Artist:R3 Music Box
ArtistUnicode:R3 Music Box
Creator:Sotarks
Version:Melancholy
Source:天体のメソッド
Tags:fhána fhana sora no celestial method ending ED shini -sh1n1-
BeatmapID:1494301
BeatmapSetID:706739

[Difficulty]
HPDrainRate:3.5
CircleSize:3.8
OverallDifficulty:3
ApproachRate:4
SliderMultiplier:1.12
SliderTickRate:1

[Events]
//Background and Video events
0,0,"BG.jpg",0,0
//Break Periods
//Storyboard Layer 0 (Background)
//Storyboard Layer 1 (Fail)
//Storyboard Layer 2 (Pass)
//Storyboard Layer 3 (Foreground)
//Storyboard Sound Samples

[TimingPoints]
0,652.173913043478,4,2,22,32,1,0
53514,789.473684210526,4,2,22,32,1,0
54328,923.076923076923,4,2,22,32,1,0
54789,535.714285714286,4,2,22,32,1,0
55005,535.714285714286,4,2,22,32,1,0

[Colours]
Combo1 : 228,81,88
Combo2 : 240,125,26
Combo3 : 83,70,153
SliderBorder : 255,255,255
SliderTrackOverride : 23,25,51

[HitObjects]
311,96,0,5,2,0:0:0:0:
311,96,652,2,0,P|295:129|292:160,1,56,2|2,0:0|0:0,0:0:0:0:
213,153,1304,2,0,P|223:188|242:212,1,56,2|0,0:0|0:0,0:0:0:0:
258,234,1793,1,2,0:0:0:0:
210,341,2282,1,2,0:0:0:0:
137,311,2608,6,0,L|127:238,1,56,2|2,0:0|0:0,0:0:0:0:
118,177,3260,1,2,0:0:0:0:
118,177,3423,2,0,L|112:135,1,28,2|0,0:0|0:0,0:0:0:0:
87,120,3749,2,0,B|197:75|168:162|292:116,1,196,2|0,0:0|0:0,0:0:0:0:
330,64,5217,6,0,P|350:92|356:123,1,56,2|2,0:0|0:0,0:0:0:0:
431,130,5869,2,0,P|422:156|405:178,1,56,2|2,0:0|0:0,0:0:0:0:
420,255,6521,2,0,L|342:246,1,56,2|0,0:0|0:0,0:0:0:0:
335,275,7010,2,0,L|279:281,1,56,2|0,0:0|0:0,0:0:0:0:
246,260,7499,1,2,0:0:0:0:
179,302,7826,6,0,P|165:266|168:235,1,56,2|0,0:0|0:0,0:0:0:0:
174,210,8315,2,0,P|185:184|187:157,1,56,2|0,0:0|0:0,0:0:0:0:
176,119,8804,1,2,0:0:0:0:
124,60,9130,2,0,P|169:42|253:111,1,168,2|2,0:0|0:0,0:0:0:0:
292,177,10434,5,2,0:0:0:0:
351,126,10760,1,2,0:0:0:0:
368,202,11086,1,2,0:0:0:0:
427,151,11412,1,2,0:0:0:0:
441,228,11739,2,0,P|411:269|391:275,1,56,2|0,0:0|0:0,0:0:0:0:
372,287,12228,2,0,L|309:284,1,56,2|0,0:0|0:0,0:0:0:0:
282,264,12717,1,2,0:0:0:0:
225,318,13043,6,0,P|205:286|204:250,1,56,2|0,0:0|0:0,0:0:0:0:
204,229,13532,2,0,P|197:201|181:179,1,56,2|0,0:0|0:0,0:0:0:0:
144,165,14021,1,2,0:0:0:0:
74,129,14347,2,0,L|254:81,1,168,2|2,0:0|0:0,0:0:0:0:
285,24,15652,6,0,P|309:52|314:84,1,56,2|0,0:0|0:0,0:0:0:0:
318,108,16141,1,2,0:0:0:0:
280,219,16630,1,2,0:0:0:0:
220,270,16956,2,0,P|253:294|329:279,1,112,2|2,0:0|0:0,0:0:0:0:
450,197,18260,6,0,B|465:134|424:156|440:74,1,112,2|0,0:0|0:0,0:0:0:0:
360,102,19239,1,2,0:0:0:0:
299,52,19565,2,0,P|249:32|163:105,1,168,2|2,0:0|0:0,0:0:0:0:
128,163,20869,6,0,L|122:225,1,56,2|0,0:0|0:0,0:0:0:0:
200,229,21521,2,0,L|205:284,1,56,2|0,0:0|0:0,0:0:0:0:
260,340,22173,2,0,P|296:324|321:327,1,56,2|0,0:0|0:0,0:0:0:0:
345,346,22663,2,0,P|372:344|396:330,1,56,2|0,0:0|0:0,0:0:0:0:
422,301,23152,1,2,0:0:0:0:
469,239,23478,6,0,L|403:219,1,56,2|0,0:0|0:0,0:0:0:0:
377,221,23967,1,2,0:0:0:0:
289,142,24456,1,2,0:0:0:0:
217,174,24782,2,0,B|113:212|113:212|75:162,1,168,2|0,0:0|0:0,0:0:0:0:
37,99,26086,5,2,0:0:0:0:
107,65,26413,1,2,0:0:0:0:
174,105,26739,1,2,0:0:0:0:
244,71,27066,1,2,0:0:0:0:
314,36,27391,2,0,L|328:99,1,56,2|0,0:0|0:0,0:0:0:0:
334,128,27880,1,2,0:0:0:0:
429,196,28369,1,2,0:0:0:0:
377,254,28695,6,0,P|331:244|305:251,1,56,2|0,0:0|0:0,0:0:0:0:
289,265,29184,2,0,P|261:265|234:256,1,56,2|0,0:0|0:0,0:0:0:0:
200,236,29673,1,2,0:0:0:0:
122,246,29999,2,0,L|98:67,1,168,2|2,0:0|0:0,0:0:0:0:
178,81,31304,6,0,P|231:83|251:74,1,56,2|0,0:0|0:0,0:0:0:0:
269,67,31793,1,2,0:0:0:0:
374,118,32282,1,2,0:0:0:0:
437,72,32608,2,0,P|452:104|451:135,1,56,2|0,0:0|0:0,0:0:0:0:
447,162,33097,2,0,P|449:189|462:214,1,56,2|0,0:0|0:0,0:0:0:0:
489,243,33586,1,2,0:0:0:0:
462,317,33913,5,2,0:0:0:0:
389,287,34239,1,2,0:0:0:0:
333,342,34565,1,2,0:0:0:0:
333,342,34728,2,0,L|286:336,1,28,2|0,0:0|0:0,0:0:0:0:
271,357,35054,2,0,B|303:234|227:296|263:153,1,196,2|2,0:0|0:0,0:0:0:0:
298,99,36521,6,0,P|253:88|237:94,1,56,2|0,0:0|0:0,0:0:0:0:
207,99,37010,2,0,P|179:101|154:90,1,56,2|0,0:0|0:0,0:0:0:0:
122,67,37499,1,2,0:0:0:0:
78,132,37826,1,2,0:0:0:0:
114,284,38478,1,2,0:0:0:0:
267,252,39130,6,0,P|316:256|384:302,1,112,2|0,0:0|0:0,0:0:0:0:
435,330,40108,2,0,P|442:315|446:298,1,28,2|2,0:0|0:0,0:0:0:0:
449,265,40434,2,0,L|444:141,1,112,2|0,0:0|0:0,0:0:0:0:
390,95,41413,2,0,L|355:90,1,28,2|2,0:0|0:0,0:0:0:0:
327,108,41739,6,0,P|285:123|269:123,1,56,2|0,0:0|0:0,0:0:0:0:
249,153,42228,2,0,P|221:149|196:137,1,56,2|0,0:0|0:0,0:0:0:0:
158,147,42717,1,2,0:0:0:0:
103,91,43043,2,0,P|82:127|98:200,1,112,2|2,0:0|0:0,0:0:0:0:
160,335,44347,6,0,P|208:341|239:331,1,56,2|0,0:0|0:0,0:0:0:0:
248,319,44836,2,0,P|275:320|302:314,1,56,2|0,0:0|0:0,0:0:0:0:
337,295,45326,1,2,0:0:0:0:
414,282,45652,2,0,P|334:250|321:153,1,168,2|2,0:0|0:0,0:0:0:0:
340,103,46956,6,0,P|335:68|319:45,1,56,2|0,0:0|0:0,0:0:0:0:
291,29,47445,1,2,0:0:0:0:
192,93,47934,1,2,0:0:0:0:
119,63,48260,1,2,0:0:0:0:
19,184,48913,1,2,0:0:0:0:
56,252,49239,6,0,B|114:218|140:275|209:240|209:240|272:262|272:262|345:243,1,280,2|0,0:0|0:0,0:0:0:0:
401,229,51195,1,2,0:0:0:0:
450,168,51521,1,2,0:0:0:0:
403,105,51847,5,2,0:0:0:0:
256,192,52173,12,2,55005,0:0:0:0:
