osu file format v14

[General]
AudioFilename: audio.mp3
AudioLeadIn: 0
PreviewTime: 15470
Countdown: 1
SampleSet: Normal
StackLeniency: 0.7
Mode: 1
LetterboxInBreaks: 0
WidescreenStoryboard: 0

[Editor]
DistanceSpacing: 1.5
BeatDivisor: 8
GridSize: 32
TimelineZoom: 1.2

[Metadata]
Title:Hop
TitleUnicode:Hop
Artist:R3 Music Box
ArtistUnicode:R3 Music Box
Creator:Lime717
Version:Oni
Source:
Tags:bulgarian chalga pop folk gadna poroda oui azis balkan instrumental cut short version ver
BeatmapID:2322237
BeatmapSetID:975821

[Difficulty]
HPDrainRate:7
CircleSize:2
OverallDifficulty:4
ApproachRate:0
SliderMultiplier:1.4
SliderTickRate:1

[Events]
//Background and Video events
0,0,"dayum.jpg",0,0
//Break Periods
//Storyboard Layer 0 (Background)
//Storyboard Layer 1 (Fail)
//Storyboard Layer 2 (Pass)
//Storyboard Layer 3 (Foreground)
//Storyboard Layer 4 (Overlay)
//Storyboard Sound Samples

[TimingPoints]
110,960,4,1,0,50,1,0
110,-66.6666666666667,4,1,0,50,0,0
28910,1000,4,1,0,50,1,0
28910,-64,4,1,0,50,0,0
29910,1200,4,1,0,50,1,0
29910,-53.3333333333333,4,1,0,50,0,0
30510,1333.33333333333,4,1,0,50,1,0
30510,-48.000000768,4,1,0,50,0,0

[HitObjects]
256,192,110,5,0,0:0:0:0:
256,192,830,1,8,0:0:0:0:
256,192,1070,1,0,0:0:0:0:
256,192,1550,1,0,0:0:0:0:
256,192,2030,1,0,0:0:0:0:
256,192,2390,1,0,0:0:0:0:
256,192,2750,1,8,0:0:0:0:
256,192,2990,1,0,0:0:0:0:
256,192,3470,1,8,0:0:0:0:
256,192,3950,1,0,0:0:0:0:
256,192,4670,1,8,0:0:0:0:
256,192,4910,1,0,0:0:0:0:
256,192,5390,1,0,0:0:0:0:
256,192,5870,1,0,0:0:0:0:
256,192,6230,1,0,0:0:0:0:
256,192,6590,1,8,0:0:0:0:
256,192,6830,1,0,0:0:0:0:
256,192,7310,1,8,0:0:0:0:
256,192,7790,1,0,0:0:0:0:
256,192,8510,1,8,0:0:0:0:
256,192,8750,1,0,0:0:0:0:
256,192,9110,1,8,0:0:0:0:
256,192,9470,1,8,0:0:0:0:
256,192,9710,1,0,0:0:0:0:
256,192,10070,1,8,0:0:0:0:
256,192,10430,1,8,0:0:0:0:
256,192,10670,1,0,0:0:0:0:
256,192,11030,1,8,0:0:0:0:
256,192,11150,1,0,0:0:0:0:
256,192,11630,1,0,0:0:0:0:
256,192,11870,1,8,0:0:0:0:
256,192,12350,1,8,0:0:0:0:
256,192,12590,1,8,0:0:0:0:
256,192,13070,1,0,0:0:0:0:
256,192,13550,1,8,0:0:0:0:
256,192,14030,1,0,0:0:0:0:
256,192,14510,1,8,0:0:0:0:
256,192,14750,1,0,0:0:0:0:
256,192,14870,1,8,0:0:0:0:
256,192,14990,1,0,0:0:0:0:
256,192,15230,1,0,0:0:0:0:
256,192,15470,1,0,0:0:0:0:
256,192,16190,1,8,0:0:0:0:
256,192,16430,1,0,0:0:0:0:
256,192,16910,1,0,0:0:0:0:
256,192,17390,1,0,0:0:0:0:
256,192,17750,1,0,0:0:0:0:
256,192,18110,1,8,0:0:0:0:
256,192,18350,1,0,0:0:0:0:
256,192,18830,1,8,0:0:0:0:
256,192,19310,1,0,0:0:0:0:
256,192,20030,1,8,0:0:0:0:
256,192,20270,1,0,0:0:0:0:
256,192,20750,1,0,0:0:0:0:
256,192,21230,1,0,0:0:0:0:
256,192,21590,1,0,0:0:0:0:
256,192,21950,1,8,0:0:0:0:
256,192,22190,1,0,0:0:0:0:
256,192,22670,1,8,0:0:0:0:
256,192,23150,1,0,0:0:0:0:
256,192,23870,1,8,0:0:0:0:
256,192,24110,1,0,0:0:0:0:
256,192,24470,1,8,0:0:0:0:
256,192,24830,1,8,0:0:0:0:
256,192,25070,1,0,0:0:0:0:
256,192,25430,1,8,0:0:0:0:
256,192,25790,1,8,0:0:0:0:
256,192,26030,1,0,0:0:0:0:
256,192,26390,1,8,0:0:0:0:
256,192,26510,1,0,0:0:0:0:
256,192,26990,1,0,0:0:0:0:
256,192,27230,1,8,0:0:0:0:
256,192,27710,1,8,0:0:0:0:
256,192,27950,1,8,0:0:0:0:
256,192,28430,1,0,0:0:0:0:
256,192,28910,1,8,0:0:0:0:
256,192,29410,1,0,0:0:0:0:
256,192,29910,1,8,0:0:0:0:
256,192,30210,1,0,0:0:0:0:
256,192,30360,1,8,0:0:0:0:
256,192,30510,1,0,0:0:0:0:
256,192,30843,1,0,0:0:0:0:
256,192,31176,1,0,0:0:0:0:
