osu file format v14

[General]
AudioFilename: audio.mp3
AudioLeadIn: 0
PreviewTime: 24452
Countdown: 0
SampleSet: Normal
StackLeniency: 0.7
Mode: 1
LetterboxInBreaks: 0
WidescreenStoryboard: 0

[Editor]
DistanceSpacing: 1.8
BeatDivisor: 4
GridSize: 4
TimelineZoom: 0.6999999

[Metadata]
Title:Hi High
TitleUnicode:Hi High
Artist:R3 Music Box
ArtistUnicode:R3 Music Box
Creator:Ascendance
Version:Nepu's Oni
Source:
Tags:LOOΠΔ LOONA girl of the month vivi 비비 yves 이브 jinsoul 진솔 haseul 하슬 kim instrumental novelty nepuri korean 이달의 소녀 [+ +]
BeatmapID:2316970
BeatmapSetID:1108681

[Difficulty]
HPDrainRate:7
CircleSize:5
OverallDifficulty:4.5
ApproachRate:5
SliderMultiplier:1.4
SliderTickRate:1

[Events]
//Background and Video events
0,0,"wallpaperflare.com_wallpaper (2).jpg",0,0
//Break Periods
//Storyboard Layer 0 (Background)
//Storyboard Layer 1 (Fail)
//Storyboard Layer 2 (Pass)
//Storyboard Layer 3 (Foreground)
//Storyboard Layer 4 (Overlay)
//Storyboard Sound Samples

[TimingPoints]
390,681.818181818182,4,1,0,40,1,0
46071,722.89156626506,4,1,0,40,1,8
46071,-94.3218260705527,4,1,0,40,0,0
46793,714.285714285714,4,1,0,40,1,0
46793,-95.5109837631328,4,1,0,40,0,0
47150,740.740740740741,4,1,0,40,1,8
47150,-92.0810313075506,4,1,0,40,0,0
47520,810.810810810811,4,1,0,40,1,8
47520,-84.0901446350488,4,1,0,40,0,0

[HitObjects]
211,47,49,5,0,0:0:0:0:
52,108,390,1,8,0:0:0:0:
182,192,1071,1,8,0:0:0:0:
197,127,1412,1,0,0:0:0:0:
182,192,1753,1,8,0:0:0:0:
272,124,2435,1,8,0:0:0:0:
197,127,2776,1,0,0:0:0:0:
272,124,3117,1,8,0:0:0:0:
171,43,3287,1,8,0:0:0:0:
227,114,3458,1,0,0:0:0:0:
227,114,3799,1,8,0:0:0:0:
94,112,3969,1,8,0:0:0:0:
94,112,4140,1,0,0:0:0:0:
116,51,4310,1,8,0:0:0:0:
174,135,4821,1,0,0:0:0:0:
261,110,5162,1,0,0:0:0:0:
261,110,5503,1,8,0:0:0:0:
98,61,5674,1,8,0:0:0:0:
261,110,5844,1,8,0:0:0:0:
161,93,6185,1,0,0:0:0:0:
71,103,6526,1,8,0:0:0:0:
71,103,7208,1,0,0:0:0:0:
162,164,7549,1,0,0:0:0:0:
223,134,7890,1,8,0:0:0:0:
223,134,8571,1,8,0:0:0:0:
163,161,8742,1,8,0:0:0:0:
142,137,8912,1,0,0:0:0:0:
142,137,9253,1,8,0:0:0:0:
163,161,9424,1,8,0:0:0:0:
142,137,9594,1,0,0:0:0:0:
163,161,9765,1,8,0:0:0:0:
122,129,10276,1,0,0:0:0:0:
305,175,10617,1,8,0:0:0:0:
305,175,10958,1,0,0:0:0:0:
140,116,11128,1,0,0:0:0:0:
305,175,11299,1,8,0:0:0:0:
117,123,11640,1,0,0:0:0:0:
307,147,11980,1,8,0:0:0:0:
307,147,12662,1,0,0:0:0:0:
108,125,13003,1,0,0:0:0:0:
215,169,13344,1,8,0:0:0:0:
215,169,14026,1,8,0:0:0:0:
108,125,14196,1,8,0:0:0:0:
215,169,14367,1,0,0:0:0:0:
215,169,14708,1,8,0:0:0:0:
108,125,14878,1,0,0:0:0:0:
215,169,15049,1,0,0:0:0:0:
108,125,15219,1,8,0:0:0:0:
152,131,15730,1,8,0:0:0:0:
152,131,16071,1,0,0:0:0:0:
152,131,16412,1,8,0:0:0:0:
131,116,16583,1,8,0:0:0:0:
152,131,16753,1,0,0:0:0:0:
235,113,17435,1,0,0:0:0:0:
160,139,17776,1,8,0:0:0:0:
56,109,17946,1,8,0:0:0:0:
160,139,18117,1,8,0:0:0:0:
170,116,18799,1,0,0:0:0:0:
65,153,19140,1,0,0:0:0:0:
170,116,19480,1,8,0:0:0:0:
83,141,19651,1,8,0:0:0:0:
193,155,19821,1,0,0:0:0:0:
193,155,20162,1,8,0:0:0:0:
193,155,20674,1,8,0:0:0:0:
67,157,21015,1,0,0:0:0:0:
218,205,21185,1,8,0:0:0:0:
67,157,21355,1,0,0:0:0:0:
218,205,21526,1,8,0:0:0:0:
119,121,21867,1,8,0:0:0:0:
175,145,22037,1,0,0:0:0:0:
169,110,22549,1,0,0:0:0:0:
200,173,22890,1,0,0:0:0:0:
169,110,23230,1,8,0:0:0:0:
200,173,23571,1,8,0:0:0:0:
200,173,24594,1,0,0:0:0:0:
187,174,24935,1,8,0:0:0:0:
182,192,25617,1,8,0:0:0:0:
197,127,25958,1,0,0:0:0:0:
182,192,26299,1,8,0:0:0:0:
272,124,26981,1,8,0:0:0:0:
197,127,27322,1,0,0:0:0:0:
272,124,27663,1,8,0:0:0:0:
171,43,27833,1,8,0:0:0:0:
227,114,28004,1,0,0:0:0:0:
227,114,28345,1,8,0:0:0:0:
94,112,28515,1,8,0:0:0:0:
94,112,28686,1,0,0:0:0:0:
116,51,28856,1,8,0:0:0:0:
174,135,29367,1,0,0:0:0:0:
261,110,29708,1,0,0:0:0:0:
261,110,30049,1,8,0:0:0:0:
98,61,30220,1,8,0:0:0:0:
261,110,30390,1,8,0:0:0:0:
161,93,30731,1,0,0:0:0:0:
71,103,31072,1,8,0:0:0:0:
71,103,31754,1,0,0:0:0:0:
162,164,32095,1,0,0:0:0:0:
223,134,32436,1,8,0:0:0:0:
223,134,33117,1,8,0:0:0:0:
163,161,33288,1,8,0:0:0:0:
142,137,33458,1,0,0:0:0:0:
142,137,33799,1,8,0:0:0:0:
163,161,33970,1,8,0:0:0:0:
142,137,34140,1,0,0:0:0:0:
163,161,34311,1,8,0:0:0:0:
122,129,34822,1,0,0:0:0:0:
305,175,35163,1,8,0:0:0:0:
305,175,35504,1,0,0:0:0:0:
140,116,35674,1,0,0:0:0:0:
305,175,35845,1,8,0:0:0:0:
117,123,36186,1,0,0:0:0:0:
307,147,36526,1,8,0:0:0:0:
307,147,37208,1,0,0:0:0:0:
108,125,37549,1,0,0:0:0:0:
215,169,37890,1,8,0:0:0:0:
215,169,38572,1,8,0:0:0:0:
108,125,38742,1,8,0:0:0:0:
215,169,38913,1,0,0:0:0:0:
215,169,39254,1,8,0:0:0:0:
108,125,39424,1,0,0:0:0:0:
215,169,39595,1,0,0:0:0:0:
108,125,39765,1,8,0:0:0:0:
152,131,40276,1,8,0:0:0:0:
152,131,40617,1,0,0:0:0:0:
152,131,40958,1,8,0:0:0:0:
131,116,41129,1,8,0:0:0:0:
152,131,41299,1,0,0:0:0:0:
235,113,41981,1,0,0:0:0:0:
160,139,42322,1,8,0:0:0:0:
56,109,42492,1,8,0:0:0:0:
160,139,42663,1,8,0:0:0:0:
170,116,43345,1,0,0:0:0:0:
65,153,43686,1,0,0:0:0:0:
170,116,44026,1,8,0:0:0:0:
83,141,44197,1,8,0:0:0:0:
193,155,44367,1,0,0:0:0:0:
193,155,44708,1,8,0:0:0:0:
193,155,45220,1,8,0:0:0:0:
67,157,45561,1,0,0:0:0:0:
218,205,45731,1,8,0:0:0:0:
67,157,45901,1,0,0:0:0:0:
218,205,46072,1,8,0:0:0:0:
119,121,46432,1,8,0:0:0:0:
175,145,46613,1,0,0:0:0:0:
169,110,47150,1,0,0:0:0:0:
200,173,47520,1,0,0:0:0:0:
169,110,47925,1,8,0:0:0:0:
200,173,48330,1,8,0:0:0:0:
