osu file format v14

[General]
AudioFilename: audio.mp3
AudioLeadIn: 0
PreviewTime: 24452
Countdown: 0
SampleSet: Normal
StackLeniency: 0.7
Mode: 1
LetterboxInBreaks: 0
WidescreenStoryboard: 0

[Editor]
DistanceSpacing: 1.8
BeatDivisor: 4
GridSize: 32
TimelineZoom: 1

[Metadata]
Title:Hi High
TitleUnicode:Hi High
Artist:R3 Music Box
ArtistUnicode:R3 Music Box
Creator:Ascendance
Version:Kantan
Source:
Tags:LOOΠΔ LOONA girl of the month vivi 비비 yves 이브 jinsoul 진솔 haseul 하슬 kim instrumental novelty nepuri korean 이달의 소녀 [+ +]
BeatmapID:2316967
BeatmapSetID:1108681

[Difficulty]
HPDrainRate:9
CircleSize:2
OverallDifficulty:2.5
ApproachRate:0
SliderMultiplier:1.4
SliderTickRate:1

[Events]
//Background and Video events
0,0,"wallpaperflare.com_wallpaper (2).jpg",0,0
//Break Periods
//Storyboard Layer 0 (Background)
//Storyboard Layer 1 (Fail)
//Storyboard Layer 2 (Pass)
//Storyboard Layer 3 (Foreground)
//Storyboard Layer 4 (Overlay)
//Storyboard Sound Samples

[TimingPoints]
390,681.818181818182,4,1,0,40,1,0
46071,722.89156626506,4,1,0,40,1,8
46071,-94.3218260705527,4,1,0,40,0,0
46793,714.285714285714,4,1,0,40,1,0
46793,-95.5109837631328,4,1,0,40,0,0
47150,740.740740740741,4,1,0,40,1,8
47150,-92.0810313075506,4,1,0,40,0,0
47520,810.810810810811,4,1,0,40,1,8
47520,-84.0901446350488,4,1,0,40,0,0

[HitObjects]
256,192,390,5,8,0:0:0:0:
256,192,1753,1,8,0:0:0:0:
256,192,3117,1,8,0:0:0:0:
256,192,3799,1,0,0:0:0:0:
256,192,4480,1,8,0:0:0:0:
256,192,5844,1,8,0:0:0:0:
256,192,7208,1,0,0:0:0:0:
256,192,8571,1,8,0:0:0:0:
256,192,9253,1,0,0:0:0:0:
256,192,9935,1,0,0:0:0:0:
256,192,10958,1,0,0:0:0:0:
256,192,11299,1,8,0:0:0:0:
256,192,12662,1,8,0:0:0:0:
256,192,14026,1,8,0:0:0:0:
256,192,14708,1,0,0:0:0:0:
256,192,15390,1,8,0:0:0:0:
256,192,16412,1,8,0:0:0:0:
256,192,16753,1,0,0:0:0:0:
256,192,17776,1,8,0:0:0:0:
256,192,18117,1,0,0:0:0:0:
256,192,18799,1,0,0:0:0:0:
256,192,19480,1,8,0:0:0:0:
256,192,20162,1,0,0:0:0:0:
256,192,21526,1,8,0:0:0:0:
256,192,22890,1,0,0:0:0:0:
256,192,23571,1,8,0:0:0:0:
256,192,24935,5,8,0:0:0:0:
256,192,26298,1,8,0:0:0:0:
256,192,27662,1,8,0:0:0:0:
256,192,28344,1,0,0:0:0:0:
256,192,29025,1,8,0:0:0:0:
256,192,30389,1,8,0:0:0:0:
256,192,31753,1,0,0:0:0:0:
256,192,33116,1,8,0:0:0:0:
256,192,33798,1,0,0:0:0:0:
256,192,34480,1,0,0:0:0:0:
256,192,35503,1,0,0:0:0:0:
256,192,35844,1,8,0:0:0:0:
256,192,37207,1,8,0:0:0:0:
256,192,38571,1,8,0:0:0:0:
256,192,39253,1,0,0:0:0:0:
256,192,39935,1,8,0:0:0:0:
256,192,40957,1,8,0:0:0:0:
256,192,41298,1,0,0:0:0:0:
256,192,42321,1,8,0:0:0:0:
256,192,42662,1,0,0:0:0:0:
256,192,43344,1,0,0:0:0:0:
256,192,44025,1,8,0:0:0:0:
256,192,44707,1,0,0:0:0:0:
256,192,46071,1,8,0:0:0:0:
256,192,47150,1,0,0:0:0:0:
256,192,47520,1,8,0:0:0:0:
256,192,48330,1,8,0:0:0:0:
