osu file format v14

[General]
AudioFilename: audio.mp3
AudioLeadIn: 0
PreviewTime: 840
Countdown: 0
SampleSet: Soft
StackLeniency: 0.7
Mode: 3
LetterboxInBreaks: 0
SpecialStyle: 0
WidescreenStoryboard: 1

[Editor]
DistanceSpacing: 1.3
BeatDivisor: 2
GridSize: 32
TimelineZoom: 0.4

[Metadata]
Title:Harumachi Clover
TitleUnicode:春待ちクローバー
Artist:R3 Music Box
ArtistUnicode:R3 Music Box
Creator:Ainer
Version:7K Hard
Source:OneRoom
Tags:anime one room japanese instrumental tv size hanasaka yui 花坂結衣 M・A・O mao ichimichi 市道 真央
BeatmapID:4163910
BeatmapSetID:2002277

[Difficulty]
HPDrainRate:8
CircleSize:7
OverallDifficulty:7.5
ApproachRate:10
SliderMultiplier:1.2
SliderTickRate:1

[Events]
//Background and Video events
0,0,"yui hard.jpg",0,0
//Break Periods
//Storyboard Layer 0 (Background)
//Storyboard Layer 1 (Fail)
//Storyboard Layer 2 (Pass)
//Storyboard Layer 3 (Foreground)
//Storyboard Layer 4 (Overlay)
//Storyboard Sound Samples

[TimingPoints]
215,625,4,2,1,10,1,0
42090,652.173913043478,4,2,1,10,1,8
42090,-95.83333333,4,2,1,10,0,0
42742,697.67441860465,4,2,1,5,1,0
42742,-89.58333333,4,2,1,5,0,0
43439,714.285714285713,4,2,1,5,1,8
43439,-87.5,4,2,1,5,0,0
43796,769.230769230768,4,2,1,5,1,8
43796,-81.25,4,2,1,5,0,0
44180,779.220779220779,4,2,1,5,1,8
44180,-80.20833333,4,2,1,5,0,0
44569,882.352941176471,4,2,1,5,1,8
44569,-70.83333333,4,2,1,5,0,0
45010,967.741935483871,4,2,1,5,1,8
45010,-64.58333333,4,2,1,5,0,0
45493,909.090909090909,4,2,1,5,1,8
45493,-68.75,4,2,1,5,0,0
45720,800,4,2,1,5,1,8
45720,-78.125,4,2,1,5,0,0
45920,800,4,2,1,5,1,0
45920,-78.125,4,2,1,5,0,0

[HitObjects]
109,192,1152,5,0,0:0:0:0:
475,192,1465,1,0,0:0:0:0:
329,192,1777,1,0,0:0:0:0:
182,192,2090,1,0,0:0:0:0:
36,192,2402,1,0,0:0:0:0:
402,192,2715,1,0,0:0:0:0:
329,192,2715,1,0,0:0:0:0:
256,192,3027,1,0,0:0:0:0:
402,192,3340,1,0,0:0:0:0:
256,192,3652,1,0,0:0:0:0:
109,192,3965,1,0,0:0:0:0:
182,192,4277,1,0,0:0:0:0:
329,192,4590,1,0,0:0:0:0:
402,192,4902,1,0,0:0:0:0:
402,192,5215,1,0,0:0:0:0:
256,192,5215,1,0,0:0:0:0:
109,192,5527,1,0,0:0:0:0:
109,192,5840,1,0,0:0:0:0:
182,192,6152,1,0,0:0:0:0:
329,192,6465,1,0,0:0:0:0:
256,192,6777,1,0,0:0:0:0:
36,192,7090,1,0,0:0:0:0:
109,192,7402,1,0,0:0:0:0:
402,192,7715,1,0,0:0:0:0:
475,192,7715,1,0,0:0:0:0:
256,192,8027,1,0,0:0:0:0:
402,192,8340,1,0,0:0:0:0:
256,192,8652,1,0,0:0:0:0:
36,192,8965,1,0,0:0:0:0:
182,192,9277,1,0,0:0:0:0:
329,192,9590,1,0,0:0:0:0:
475,192,9902,1,0,0:0:0:0:
475,192,10215,1,0,0:0:0:0:
109,192,10215,1,0,0:0:0:0:
256,192,10527,1,0,0:0:0:0:
402,192,10840,1,0,0:0:0:0:
182,192,11152,1,0,0:0:0:0:
36,192,11465,1,0,0:0:0:0:
256,192,11777,1,0,0:0:0:0:
109,192,12090,1,0,0:0:0:0:
182,192,12402,1,0,0:0:0:0:
329,192,12715,1,0,0:0:0:0:
402,192,12715,1,0,0:0:0:0:
256,192,13027,1,0,0:0:0:0:
329,192,13340,1,0,0:0:0:0:
256,192,13652,1,0,0:0:0:0:
36,192,13965,1,0,0:0:0:0:
182,192,14277,1,0,0:0:0:0:
475,192,14590,1,0,0:0:0:0:
329,192,14902,1,0,0:0:0:0:
109,192,15215,1,0,0:0:0:0:
256,192,15527,1,0,0:0:0:0:
402,192,15840,1,0,0:0:0:0:
256,192,16152,1,0,0:0:0:0:
182,192,16465,1,0,0:0:0:0:
329,192,16777,1,0,0:0:0:0:
475,192,17090,1,0,0:0:0:0:
36,192,17402,1,0,0:0:0:0:
182,192,17715,1,0,0:0:0:0:
329,192,18027,1,0,0:0:0:0:
475,192,18340,1,0,0:0:0:0:
182,192,18652,1,0,0:0:0:0:
329,192,18965,1,0,0:0:0:0:
109,192,19277,1,0,0:0:0:0:
402,192,19590,1,0,0:0:0:0:
36,192,19902,1,0,0:0:0:0:
475,192,20215,1,0,0:0:0:0:
109,192,20527,1,0,0:0:0:0:
256,192,20840,1,0,0:0:0:0:
402,192,21152,1,0,0:0:0:0:
182,192,21465,1,0,0:0:0:0:
36,192,21777,1,0,0:0:0:0:
256,192,22090,1,0,0:0:0:0:
109,192,22402,1,0,0:0:0:0:
402,192,22715,1,0,0:0:0:0:
329,192,22715,1,0,0:0:0:0:
256,192,23027,1,0,0:0:0:0:
402,192,23340,1,0,0:0:0:0:
256,192,23652,1,0,0:0:0:0:
109,192,23965,1,0,0:0:0:0:
182,192,24277,1,0,0:0:0:0:
329,192,24590,1,0,0:0:0:0:
402,192,24902,1,0,0:0:0:0:
402,192,25215,1,0,0:0:0:0:
256,192,25215,1,0,0:0:0:0:
109,192,25527,1,0,0:0:0:0:
109,192,25840,1,0,0:0:0:0:
182,192,26152,1,0,0:0:0:0:
329,192,26465,1,0,0:0:0:0:
256,192,26777,1,0,0:0:0:0:
36,192,27090,1,0,0:0:0:0:
109,192,27402,1,0,0:0:0:0:
402,192,27715,1,0,0:0:0:0:
475,192,27715,1,0,0:0:0:0:
256,192,28027,1,0,0:0:0:0:
402,192,28340,1,0,0:0:0:0:
256,192,28652,1,0,0:0:0:0:
36,192,28965,1,0,0:0:0:0:
182,192,29277,1,0,0:0:0:0:
329,192,29590,1,0,0:0:0:0:
475,192,29902,1,0,0:0:0:0:
475,192,30215,1,0,0:0:0:0:
109,192,30215,1,0,0:0:0:0:
256,192,30527,1,0,0:0:0:0:
402,192,30840,1,0,0:0:0:0:
182,192,31152,1,0,0:0:0:0:
36,192,31465,1,0,0:0:0:0:
256,192,31777,1,0,0:0:0:0:
109,192,32090,1,0,0:0:0:0:
182,192,32402,1,0,0:0:0:0:
329,192,32715,1,0,0:0:0:0:
402,192,32715,1,0,0:0:0:0:
256,192,33027,1,0,0:0:0:0:
329,192,33340,1,0,0:0:0:0:
256,192,33652,1,0,0:0:0:0:
36,192,33965,1,0,0:0:0:0:
182,192,34277,1,0,0:0:0:0:
475,192,34590,1,0,0:0:0:0:
329,192,34902,1,0,0:0:0:0:
109,192,35215,1,0,0:0:0:0:
256,192,35527,1,0,0:0:0:0:
402,192,35840,1,0,0:0:0:0:
256,192,36152,1,0,0:0:0:0:
182,192,36465,1,0,0:0:0:0:
329,192,36777,1,0,0:0:0:0:
475,192,37090,1,0,0:0:0:0:
36,192,37402,1,0,0:0:0:0:
182,192,37715,1,0,0:0:0:0:
329,192,38027,1,0,0:0:0:0:
475,192,38340,1,0,0:0:0:0:
182,192,38652,1,0,0:0:0:0:
329,192,38965,1,0,0:0:0:0:
109,192,39277,1,0,0:0:0:0:
402,192,39590,1,0,0:0:0:0:
36,192,39902,1,0,0:0:0:0:
475,192,40215,1,0,0:0:0:0:
109,192,40527,1,0,0:0:0:0:
256,192,40840,1,0,0:0:0:0:
402,192,41152,1,0,0:0:0:0:
182,192,41465,1,0,0:0:0:0:
36,192,41777,1,0,0:0:0:0:
256,192,42090,1,0,0:0:0:0:
256,192,42416,1,0,0:0:0:0:
109,192,42742,1,0,0:0:0:0:
182,192,42742,1,0,0:0:0:0:
329,192,43090,1,0,0:0:0:0:
475,192,43439,1,0,0:0:0:0:
36,192,43796,1,0,0:0:0:0:
256,192,44180,1,0,0:0:0:0:
109,192,44569,1,0,0:0:0:0:
402,192,45010,1,0,0:0:0:0:
182,192,45493,1,0,0:0:0:0:
256,192,45720,1,0,0:0:0:0:
329,192,45920,1,0,0:0:0:0:
