osu file format v14

[General]
AudioFilename: audio.mp3
AudioLeadIn: 0
PreviewTime: 840
Countdown: 0
SampleSet: Soft
StackLeniency: 0.7
Mode: 3
LetterboxInBreaks: 0
SpecialStyle: 0
WidescreenStoryboard: 1

[Editor]
DistanceSpacing: 1.3
BeatDivisor: 4
GridSize: 32
TimelineZoom: 0.3

[Metadata]
Title:Harumachi Clover
TitleUnicode:春待ちクローバー
Artist:R3 Music Box
ArtistUnicode:R3 Music Box
Creator:Ainer
Version:7K Easy
Source:OneRoom
Tags:anime one room japanese instrumental tv size hanasaka yui 花坂結衣 M・A・O mao ichimichi 市道 真央
BeatmapID:4163909
BeatmapSetID:2002277

[Difficulty]
HPDrainRate:7
CircleSize:7
OverallDifficulty:6.5
ApproachRate:10
SliderMultiplier:1.2
SliderTickRate:1

[Events]
//Background and Video events
0,0,"yui easy.jpg",0,0
//Break Periods
//Storyboard Layer 0 (Background)
//Storyboard Layer 1 (Fail)
//Storyboard Layer 2 (Pass)
//Storyboard Layer 3 (Foreground)
//Storyboard Layer 4 (Overlay)
//Storyboard Sound Samples

[TimingPoints]
215,625,4,2,1,10,1,0
42090,652.173913043478,4,2,1,10,1,8
42090,-95.83333333,4,2,1,10,0,0
42742,697.67441860465,4,2,1,5,1,0
42742,-89.58333333,4,2,1,5,0,0
43439,714.285714285713,4,2,1,5,1,8
43439,-87.5,4,2,1,5,0,0
43796,769.230769230768,4,2,1,5,1,8
43796,-81.25,4,2,1,5,0,0
44180,779.220779220779,4,2,1,5,1,8
44180,-80.20833333,4,2,1,5,0,0
44569,882.352941176471,4,2,1,5,1,8
44569,-70.83333333,4,2,1,5,0,0
45010,967.741935483871,4,2,1,5,1,8
45010,-64.58333333,4,2,1,5,0,0
45493,909.090909090909,4,2,1,5,1,8
45493,-68.75,4,2,1,5,0,0
45720,800,4,2,1,5,1,8
45720,-78.125,4,2,1,5,0,0
45920,800,4,2,1,5,1,0
45920,-78.125,4,2,1,5,0,0

[HitObjects]
182,192,1152,5,0,0:0:0:0:
402,192,1465,1,0,0:0:0:0:
256,192,2090,1,0,0:0:0:0:
109,192,2715,1,0,0:0:0:0:
109,192,3340,1,0,0:0:0:0:
182,192,3965,1,0,0:0:0:0:
329,192,4590,1,0,0:0:0:0:
475,192,5215,1,0,0:0:0:0:
256,192,5840,1,0,0:0:0:0:
36,192,6465,1,0,0:0:0:0:
182,192,7090,1,0,0:0:0:0:
329,192,7715,1,0,0:0:0:0:
329,192,8340,1,0,0:0:0:0:
109,192,8965,1,0,0:0:0:0:
256,192,9590,1,0,0:0:0:0:
475,192,10215,1,0,0:0:0:0:
329,192,10840,1,0,0:0:0:0:
182,192,11465,1,0,0:0:0:0:
36,192,12090,1,0,0:0:0:0:
256,192,12715,1,0,0:0:0:0:
256,192,13340,1,0,0:0:0:0:
402,192,13965,1,0,0:0:0:0:
36,192,14590,1,0,0:0:0:0:
182,192,15215,1,0,0:0:0:0:
329,192,15840,1,0,0:0:0:0:
475,192,16465,1,0,0:0:0:0:
256,192,17090,1,0,0:0:0:0:
36,192,17715,1,0,0:0:0:0:
329,192,18340,1,0,0:0:0:0:
109,192,18965,1,0,0:0:0:0:
402,192,19590,1,0,0:0:0:0:
182,192,20215,1,0,0:0:0:0:
475,192,20840,1,0,0:0:0:0:
329,192,21465,1,0,0:0:0:0:
256,192,22090,1,0,0:0:0:0:
109,192,22715,1,0,0:0:0:0:
109,192,23340,1,0,0:0:0:0:
182,192,23965,1,0,0:0:0:0:
329,192,24590,1,0,0:0:0:0:
475,192,25215,1,0,0:0:0:0:
256,192,25840,1,0,0:0:0:0:
36,192,26465,1,0,0:0:0:0:
182,192,27090,1,0,0:0:0:0:
329,192,27715,1,0,0:0:0:0:
329,192,28340,1,0,0:0:0:0:
109,192,28965,1,0,0:0:0:0:
256,192,29590,1,0,0:0:0:0:
475,192,30215,1,0,0:0:0:0:
329,192,30840,1,0,0:0:0:0:
182,192,31465,1,0,0:0:0:0:
36,192,32090,1,0,0:0:0:0:
256,192,32715,1,0,0:0:0:0:
256,192,33340,1,0,0:0:0:0:
402,192,33965,1,0,0:0:0:0:
36,192,34590,1,0,0:0:0:0:
182,192,35215,1,0,0:0:0:0:
329,192,35840,1,0,0:0:0:0:
475,192,36465,1,0,0:0:0:0:
256,192,37090,1,0,0:0:0:0:
36,192,37715,1,0,0:0:0:0:
329,192,38340,1,0,0:0:0:0:
109,192,38965,1,0,0:0:0:0:
402,192,39590,1,0,0:0:0:0:
182,192,40215,1,0,0:0:0:0:
475,192,40840,1,0,0:0:0:0:
329,192,41465,1,0,0:0:0:0:
256,192,42090,1,0,0:0:0:0:
109,192,42742,1,0,0:0:0:0:
182,192,43439,1,0,0:0:0:0:
256,192,44180,1,0,0:0:0:0:
329,192,45010,1,0,0:0:0:0:
402,192,45920,1,0,0:0:0:0:
