osu file format v14

[General]
AudioFilename: audio.mp3
AudioLeadIn: 0
PreviewTime: 15
Countdown: 0
SampleSet: Soft
StackLeniency: 0.7
Mode: 0
LetterboxInBreaks: 0
WidescreenStoryboard: 0

[Editor]
DistanceSpacing: 1
BeatDivisor: 4
GridSize: 4
TimelineZoom: 1

[Metadata]
Title:Ginpatsu no Shounen
TitleUnicode:銀髪の少年
Artist:R3 Music Box
ArtistUnicode:R3 Music Box
Creator:Chompy
Version:Lullaby
Source:HUNTER×HUNTER
Tags:ハンター×ハンター 2011 hunter x キルア゠ゾルディック Killua Zoldyck The Silver Haired Boy 平野義久 Yoshihisa Hirano anime instrumental
BeatmapID:2433563
BeatmapSetID:1166715

[Difficulty]
HPDrainRate:3.5
CircleSize:4.5
OverallDifficulty:4
ApproachRate:5
SliderMultiplier:1
SliderTickRate:1

[Events]
//Background and Video events
0,0,"killua.jpg",0,0
//Break Periods
//Storyboard Layer 0 (Background)
//Storyboard Layer 1 (Fail)
//Storyboard Layer 2 (Pass)
//Storyboard Layer 3 (Foreground)
//Storyboard Layer 4 (Overlay)
//Storyboard Sound Samples

[TimingPoints]
-311,428.571428571429,3,2,1,35,1,0
117,-100,3,2,4,35,0,0
546,-100,3,2,5,35,0,0
974,-100,3,2,7,35,0,0
2260,-100,3,2,5,35,0,0
3546,-100,3,2,4,35,0,0
4403,-100,3,2,2,35,0,0
4831,-100,3,2,3,35,0,0
6117,-100,3,2,7,35,0,0
6974,-100,3,2,9,35,0,0
7403,-100,3,2,10,35,0,0
8260,-100,3,2,9,35,0,0
8474,-100,3,2,8,35,0,0
8689,-100,3,2,7,35,0,0
8903,-100,3,2,6,35,0,0
9117,-100,3,2,7,35,0,0
9546,-100,3,2,12,35,0,0
9974,-100,3,2,11,35,0,0
11260,-100,3,2,12,35,0,0
12117,-100,3,2,10,35,0,0
12546,-100,3,2,11,35,0,0
13831,-100,3,2,10,35,0,0
14260,-100,3,2,9,35,0,0
14689,-100,3,2,8,35,0,0
15117,-100,3,2,7,35,0,0
15974,-100,3,2,6,35,0,0
16403,-100,3,2,7,35,0,0
17260,-100,3,2,9,35,0,0
17689,-100,3,2,10,35,0,0
18546,-100,3,2,9,35,0,0
18760,-100,3,2,8,35,0,0
18974,-100,3,2,7,35,0,0
20260,-100,3,2,1,40,0,0
20689,-100,3,2,1,35,0,0
21117,-100,3,2,5,35,0,0
21546,-100,3,2,7,35,0,0
22831,-100,3,2,5,35,0,0
24117,-100,3,2,4,35,0,0
24974,-100,3,2,2,35,0,0
25403,-100,3,2,3,35,0,0
26689,-100,3,2,7,35,0,0
27546,-100,3,2,9,35,0,0
27974,-100,3,2,10,35,0,0
28831,-100,3,2,9,35,0,0
29046,-100,3,2,8,35,0,0
29260,-100,3,2,7,35,0,0
29474,-100,3,2,6,35,0,0
29689,-100,3,2,7,35,0,0
30117,-100,3,2,12,35,0,0
30546,-100,3,2,11,35,0,0
30974,-100,3,2,7,35,0,0
31189,-100,3,2,9,35,0,0
31403,-100,3,2,11,35,0,0
31617,-100,3,2,12,35,0,0
31831,-100,3,2,13,35,0,0
32689,-100,3,2,10,35,0,0
33117,-100,3,2,11,35,0,0
34403,-100,3,2,14,35,0,0
34831,-100,3,2,11,35,0,0
35260,-100,3,2,9,35,0,0
35689,-100,3,2,7,35,0,0
36117,-100,3,2,8,35,0,0
36546,-100,3,2,9,35,0,0
36974,-100,3,2,11,35,0,0
38263,465.116279069768,3,2,10,35,1,0
38728,-100,3,2,9,35,0,0
39193,-100,3,2,8,35,0,0
39658,512.820512820513,3,2,7,35,1,0
40720,526.315789473684,3,2,6,35,1,0
41246,-100,3,2,7,35,0,0
41772,-100,3,2,1,30,0,0
42298,-100,3,2,1,25,0,0
42825,-100,3,2,1,20,0,0
43351,-100,3,2,1,15,0,0
43877,-100,3,2,1,10,0,0
44404,-100,3,2,1,5,0,0

[Colours]
Combo1 : 90,111,250
Combo2 : 220,215,232
Combo3 : 120,166,252

[HitObjects]
0,226,118,6,0,P|44:207|50:160,1,100,2|2,2:0|2:0,0:0:0:0:
5,70,974,6,0,B|54:34|108:62|88:84|148:108|191:65,1,200,2|0,2:0|0:0,0:0:0:0:
285,95,2260,2,0,B|240:65|281:8|281:8|351:1|354:55,1,200,2|0,2:0|0:0,0:0:0:0:
415,133,3546,2,0,L|391:239,1,100,2|0,0:0|0:0,0:0:0:0:
448,313,4403,1,2,0:0:0:0:
362,363,4831,2,0,P|313:367|277:334,1,100,2|0,0:0|0:0,0:0:0:0:
262,235,5689,1,0,0:0:0:0:
162,237,6117,6,0,B|175:275|163:307|137:329|102:332|102:332|64:300|80:256,1,200,2|2,2:0|2:0,0:0:0:0:
112,178,7403,2,0,B|135:151|186:146|219:180|219:180|210:144|222:119|250:103,1,200,2|2,2:0|2:0,0:0:0:0:
291,95,8474,1,2,0:0:0:0:
291,95,8689,2,0,P|277:71|278:47,1,50,2|2,0:0|0:0,0:0:0:0:
312,12,9117,1,2,0:0:0:0:
392,71,9546,1,2,0:0:0:0:
484,33,9974,2,0,B|526:83|497:130|480:120|443:170|482:219,1,200,2|0,2:0|0:0,0:0:0:0:
467,315,11260,5,2,0:0:0:0:
380,365,11689,1,2,0:0:0:0:
305,297,12117,1,2,2:0:0:0:
225,357,12546,2,0,B|199:342|194:306|202:272|202:272|174:271|132:281|122:338,1,200,2|0,2:0|0:0,0:0:0:0:
26,348,13831,5,2,2:0:0:0:
71,259,14260,1,2,2:0:0:0:
4,184,14689,1,2,2:0:0:0:
20,85,15117,2,0,P|60:110|104:91,1,100,2|0,0:0|0:0,0:0:0:0:
147,1,15974,1,2,0:0:0:0:
224,63,16403,6,0,B|212:174,1,100,2|0,0:0|0:0,0:0:0:0:
263,248,17260,1,2,0:0:0:0:
333,177,17689,2,0,P|380:179|404:137,1,100,2|0,0:0|0:0,0:0:0:0:
381,40,18546,2,0,P|402:26|437:26,1,50,2|2,2:0|2:0,0:0:0:0:
470,46,18974,5,2,2:0:0:0:
425,135,19403,1,0,0:0:0:0:
488,211,19831,1,0,0:0:0:0:
462,308,20260,2,0,B|409:265|355:293|375:315|315:339|272:296,1,200,0|2,0:0|2:0,0:0:0:0:
248,204,21546,6,0,B|207:207|190:244|190:244|180:189|142:162|98:169,1,200,2|0,2:0|0:0,0:0:0:0:
24,227,22831,2,0,B|-21:257|20:314|20:314|90:321|93:267,1,200,2|0,2:0|0:0,0:0:0:0:
123,172,24117,2,0,P|170:181|189:225,1,100,2|0,0:0|0:0,0:0:0:0:
155,319,24974,1,2,0:0:0:0:
235,377,25403,2,0,L|340:360,1,100,2|0,0:0|0:0,0:0:0:0:
389,277,26260,1,0,0:0:0:0:
289,267,26689,6,0,B|236:234|223:182|240:152|283:146|309:157|315:193,1,200,2|2,2:0|2:0,0:0:0:0:
393,252,27974,2,0,B|415:229|425:194|420:159|402:128|402:128|440:138|463:108,1,200,2|2,2:0|2:0,0:0:0:0:
509,89,29046,1,2,2:0:0:0:
509,89,29260,2,0,P|511:64|500:36,1,50,2|2,0:0|0:0,0:0:0:0:
459,15,29689,1,2,0:0:0:0:
401,96,30117,1,2,0:0:0:0:
475,163,30546,1,2,2:0:0:0:
398,227,30974,2,0,P|391:250|395:275,1,50,2|2,2:0|2:0,0:0:0:0:
438,300,31403,2,0,P|444:323|440:348,1,50,2|2,2:0|2:0,0:0:0:0:
396,373,31831,6,0,L|285:380,1,100,2|0,0:0|0:0,0:0:0:0:
202,342,32689,1,2,0:0:0:0:
109,379,33117,2,0,P|122:332|90:296,1,100,2|0,2:0|0:0,0:0:0:0:
14,360,33974,1,0,0:0:0:0:
6,260,34403,6,0,L|-1:156,2,100,2|2|2,2:0|2:0|2:0,0:0:0:0:
86,321,35689,1,2,2:0:0:0:
163,257,36117,1,2,2:0:0:0:
240,321,36546,1,2,2:0:0:0:
303,243,36974,6,0,B|319:248|332:261|335:286|335:286|338:316|375:341|415:325|429:291|420:267,1,200,2|0,2:0|0:0,0:0:0:0:
378,170,38263,2,0,P|392:135|450:121,2,100,2|2|2,2:0|2:0|2:0,0:0:0:0:
459,210,39658,5,2,2:0:0:0:
437,307,40170,1,2,2:0:0:0:
331,310,40720,1,2,2:0:0:0:
300,214,41246,1,2,2:0:0:0:
256,192,41377,12,0,44404,0:0:0:0:
