osu file format v14

[General]
AudioFilename: audio.mp3
AudioLeadIn: 0
PreviewTime: 23143
Countdown: 0
SampleSet: Normal
StackLeniency: 0.7
Mode: 1
LetterboxInBreaks: 0
WidescreenStoryboard: 0

[Editor]
DistanceSpacing: 1.2
BeatDivisor: 6
GridSize: 16
TimelineZoom: 1

[Metadata]
Title:FREEDOM DiVE
TitleUnicode:FREEDOM DiVE↓
Artist:R3 Music Box
ArtistUnicode:R3 Music Box
Creator:soirT
Version:Kantan
Source:MAXBEAT
Tags:Parousia xi calm bms instrumental video game videogame short ver. version
BeatmapID:3506351
BeatmapSetID:1715971

[Difficulty]
HPDrainRate:9.5
CircleSize:2
OverallDifficulty:2
ApproachRate:9
SliderMultiplier:1.4
SliderTickRate:1

[Events]
//Background and Video events
0,0,"bg.jpg",0,50
//Break Periods
//Storyboard Layer 0 (Background)
//Storyboard Layer 1 (Fail)
//Storyboard Layer 2 (Pass)
//Storyboard Layer 3 (Foreground)
//Storyboard Layer 4 (Overlay)
//Storyboard Sound Samples

[TimingPoints]
53,727.272727272727,4,1,0,40,1,0
46598,769.230769230769,4,1,0,40,1,0
46598,-94.5454545456608,4,1,0,40,0,0
46982,779.220779220779,4,1,0,20,1,8
46982,-93.3333333332089,4,1,0,20,0,8
47371,789.473684210526,4,1,0,20,1,8
47765,845.070422535211,4,1,0,20,1,8
48187,895.522388059701,4,1,0,20,1,8
48634,923.076923076923,4,1,0,20,1,8
49095,1034.48275862069,4,1,0,20,1,8
49612,1176.47058823529,4,1,0,20,1,8

[HitObjects]
255,190,53,5,0,0:0:0:0:
255,190,780,1,0,0:0:0:0:
255,190,1507,1,8,0:0:0:0:
255,190,2962,1,8,0:0:0:0:
255,190,3689,1,0,0:0:0:0:
255,190,4416,1,0,0:0:0:0:
255,190,5143,1,0,0:0:0:0:
255,190,5871,1,8,0:0:0:0:
255,190,7325,1,8,0:0:0:0:
255,190,8052,1,0,0:0:0:0:
255,190,8780,1,8,0:0:0:0:
255,190,9507,1,0,0:0:0:0:
255,190,10234,1,0,0:0:0:0:
255,190,11689,1,0,0:0:0:0:
255,190,12416,1,0,0:0:0:0:
255,190,13143,1,8,0:0:0:0:
255,190,14598,1,0,0:0:0:0:
255,190,15325,1,8,0:0:0:0:
255,190,16052,1,8,0:0:0:0:
255,190,16780,1,0,0:0:0:0:
255,190,17507,1,8,0:0:0:0:
255,190,18962,1,8,0:0:0:0:
255,190,19689,1,8,0:0:0:0:
255,190,20416,1,0,0:0:0:0:
255,190,21871,1,8,0:0:0:0:
255,190,22598,1,8,0:0:0:0:
255,190,23325,1,0,0:0:0:0:
255,190,24052,1,0,0:0:0:0:
255,190,24780,1,8,0:0:0:0:
255,190,26234,1,8,0:0:0:0:
255,190,26962,1,0,0:0:0:0:
255,190,27689,1,0,0:0:0:0:
255,190,28416,1,0,0:0:0:0:
255,190,29143,1,8,0:0:0:0:
255,190,30598,1,8,0:0:0:0:
255,190,31325,1,0,0:0:0:0:
255,190,32052,1,8,0:0:0:0:
255,190,32780,1,8,0:0:0:0:
255,190,33507,1,0,0:0:0:0:
255,190,34962,1,0,0:0:0:0:
255,190,35689,1,0,0:0:0:0:
255,190,36416,1,8,0:0:0:0:
255,190,37871,1,0,0:0:0:0:
255,190,38598,1,0,0:0:0:0:
255,190,39325,1,8,0:0:0:0:
255,190,40052,1,0,0:0:0:0:
255,190,40780,1,8,0:0:0:0:
255,190,42234,1,8,0:0:0:0:
255,190,42962,1,8,0:0:0:0:
255,190,43689,1,0,0:0:0:0:
255,190,45143,1,8,0:0:0:0:
255,190,45871,1,8,0:0:0:0:
255,190,46598,5,0,0:0:0:0:
256,192,46982,12,0,50004,0:0:0:0:
