osu file format v14

[General]
AudioFilename: audio.mp3
AudioLeadIn: 0
PreviewTime: 53
Countdown: 1
SampleSet: Soft
StackLeniency: 0.7
Mode: 1
LetterboxInBreaks: 0
WidescreenStoryboard: 1

[Editor]
DistanceSpacing: 1.4
BeatDivisor: 4
GridSize: 16
TimelineZoom: 1

[Metadata]
Title:FREEDOM DiVE
TitleUnicode:FREEDOM DiVE
Artist:R3 Music Box
ArtistUnicode:R3 Music Box
Creator:sczer
Version:Kantan
Source:BMS
Tags:Musicbox Calm Happyhardcore Slow xi voez cytus
BeatmapID:1648734
BeatmapSetID:785434

[Difficulty]
HPDrainRate:7
CircleSize:7
OverallDifficulty:4
ApproachRate:10
SliderMultiplier:1.4
SliderTickRate:1

[Events]
//Background and Video events
0,0,"BG.jpg",0,0
//Break Periods
//Storyboard Layer 0 (Background)
//Storyboard Layer 1 (Fail)
//Storyboard Layer 2 (Pass)
//Storyboard Layer 3 (Foreground)
//Storyboard Layer 4 (Overlay)
//Storyboard Sound Samples

[TimingPoints]
53,727.272727272727,4,2,1,30,1,0
46598,769.230769230769,4,2,1,30,1,0
46598,-94.3396226415094,4,2,1,30,0,0
46982,779.220779220779,4,2,1,30,1,0
47371,789.473684210526,4,2,1,30,1,0
47765,845.070422535211,4,2,1,30,1,0
48187,895.522388059701,4,2,1,30,1,0
48634,923.076923076923,4,2,1,30,1,0
49095,1052.63157894737,4,2,1,30,1,0
49621,750,4,2,1,30,1,0

[HitObjects]
256,192,53,5,0,0:0:0:0:
256,192,780,1,0,0:0:0:0:
256,208,1507,1,0,0:0:0:0:
256,192,2234,1,2,0:0:0:0:
256,192,2962,1,2,0:0:0:0:
256,192,3689,1,2,0:0:0:0:
256,192,4416,1,0,0:0:0:0:
256,192,4962,2,2,L|448:192,1,175
256,192,6598,1,0,0:0:0:0:
256,192,7325,1,0,0:0:0:0:
256,192,8052,1,0,0:0:0:0:
256,192,8416,1,2,0:0:0:0:
256,192,8780,1,0,0:0:0:0:
256,192,9507,1,0,0:0:0:0:
256,192,10234,1,0,0:0:0:0:
256,192,10962,1,0,0:0:0:0:
256,192,11689,1,2,0:0:0:0:
256,192,12052,1,2,0:0:0:0:
256,192,12416,1,2,0:0:0:0:
256,192,13143,1,0,0:0:0:0:
256,192,13871,1,0,0:0:0:0:
256,192,14598,1,0,0:0:0:0:
252,195,14962,1,2,0:0:0:0:
256,192,15325,1,2,0:0:0:0:
256,192,16052,1,0,0:0:0:0:
256,192,16780,1,2,0:0:0:0:
256,192,17507,1,2,0:0:0:0:
256,192,18234,1,0,0:0:0:0:
256,192,18962,1,2,0:0:0:0:
256,192,19689,1,2,0:0:0:0:
256,192,20416,1,0,0:0:0:0:
256,192,21143,1,2,0:0:0:0:
256,192,21871,1,2,0:0:0:0:
256,192,22234,1,2,0:0:0:0:
256,192,22598,1,0,0:0:0:0:
256,192,22962,1,0,0:0:0:0:
256,192,23325,1,2,0:0:0:0:
240,192,24052,1,0,0:0:0:0:
240,192,24780,1,0,0:0:0:0:
240,192,25507,1,0,0:0:0:0:
240,192,26234,1,0,0:0:0:0:
240,192,26962,1,2,0:0:0:0:
256,176,27689,1,2,0:0:0:0:
256,192,28234,2,0,L|432:192,1,175
272,208,29871,1,2,0:0:0:0:
272,208,30598,1,2,0:0:0:0:
256,192,30962,1,0,0:0:0:0:
272,208,31325,1,2,0:0:0:0:
272,208,32052,1,2,0:0:0:0:
256,192,32780,1,0,0:0:0:0:
256,192,33507,1,0,0:0:0:0:
256,192,34234,1,4,0:0:0:0:
256,192,34962,1,2,0:0:0:0:
256,192,35689,1,0,0:0:0:0:
256,192,36416,1,0,0:0:0:0:
256,192,37143,1,2,0:0:0:0:
256,192,37871,1,0,0:0:0:0:
272,192,38598,1,0,0:0:0:0:
272,192,39325,1,2,0:0:0:0:
272,192,40052,1,0,0:0:0:0:
256,192,40416,1,2,0:0:0:0:
256,192,40780,1,2,0:0:0:0:
256,192,41507,1,0,0:0:0:0:
256,192,42234,1,0,0:0:0:0:
256,192,42598,1,2,0:0:0:0:
256,192,42962,1,0,0:0:0:0:
256,192,43325,1,2,0:0:0:0:
256,192,43689,1,2,0:0:0:0:
256,192,44416,1,0,0:0:0:0:
256,192,45143,1,8,0:0:0:0:
256,192,45507,1,2,0:0:0:0:
256,192,45871,1,2,0:0:0:0:
256,192,46234,1,8,0:0:0:0:
256,192,46598,12,0,50371,0:0:0:0:
