osu file format v14

[General]
AudioFilename: audio.mp3
AudioLeadIn: 0
PreviewTime: 53
Countdown: 1
SampleSet: Soft
StackLeniency: 0.7
Mode: 3
LetterboxInBreaks: 0
SpecialStyle: 0
WidescreenStoryboard: 0

[Editor]
DistanceSpacing: 1.4
BeatDivisor: 4
GridSize: 16
TimelineZoom: 1

[Metadata]
Title:FREEDOM DiVE
TitleUnicode:FREEDOM DiVE
Artist:R3 Music Box
ArtistUnicode:R3 Music Box
Creator:sczer
Version:EZ
Source:BMS
Tags:Musicbox Calm Happyhardcore Slow xi voez cytus
BeatmapID:1648731
BeatmapSetID:785434

[Difficulty]
HPDrainRate:3
CircleSize:4
OverallDifficulty:3
ApproachRate:10
SliderMultiplier:1.1
SliderTickRate:1

[Events]
//Background and Video events
0,0,"BG.jpg",0,0
//Break Periods
//Storyboard Layer 0 (Background)
//Storyboard Layer 1 (Fail)
//Storyboard Layer 2 (Pass)
//Storyboard Layer 3 (Foreground)
//Storyboard Sound Samples

[TimingPoints]
53,727.272727272727,4,2,1,30,1,0
46598,769.230769230769,4,2,1,30,1,0
46598,-94.3396226415094,4,2,1,30,0,0
46982,779.220779220779,4,2,1,30,1,0
46982,-93.4579439252336,4,2,1,30,0,0
47371,789.473684210526,4,2,1,30,1,0
47371,-92.5925925925926,4,2,1,30,0,0
47765,845.070422535211,4,2,1,30,1,0
47765,-87.719298245614,4,2,1,30,0,0
48187,895.522388059701,4,2,1,30,1,0
48187,-84.0336134453781,4,2,1,30,0,0
48634,923.076923076923,4,2,1,30,1,0
48634,-83.3333333333333,4,2,1,30,0,0
49095,1052.63157894737,4,2,1,30,1,0
49095,-80.6451612903226,4,2,1,30,0,0
49621,750,4,2,1,30,1,0
49621,-100,4,2,1,30,0,0

[HitObjects]
64,192,53,5,0,0:0:0:0:
192,192,780,1,0,0:0:0:0:
320,192,1507,1,0,0:0:0:0:
448,192,2234,1,0,0:0:0:0:
64,192,2234,1,0,0:0:0:0:
192,192,2962,1,0,0:0:0:0:
320,192,3689,1,0,0:0:0:0:
448,192,4416,1,0,0:0:0:0:
320,192,4962,1,0,0:0:0:0:
192,192,5143,1,0,0:0:0:0:
64,192,5325,1,0,0:0:0:0:
192,192,5507,1,0,0:0:0:0:
320,192,5689,1,0,0:0:0:0:
448,192,5871,128,0,6234:0:0:0:0:
192,192,6598,1,0,0:0:0:0:
320,192,6598,1,0,0:0:0:0:
64,192,6962,1,0,0:0:0:0:
448,192,6962,1,0,0:0:0:0:
192,192,7325,1,0,0:0:0:0:
320,192,7689,1,0,0:0:0:0:
448,192,8052,1,0,0:0:0:0:
320,192,8416,1,0,0:0:0:0:
64,192,8780,1,0,0:0:0:0:
192,192,8780,1,0,0:0:0:0:
320,192,9143,1,0,0:0:0:0:
448,192,9143,1,0,0:0:0:0:
192,192,9507,1,0,0:0:0:0:
64,192,9507,1,0,0:0:0:0:
320,192,9871,1,0,0:0:0:0:
448,192,9871,1,0,0:0:0:0:
64,192,10234,128,0,10780:0:0:0:0:
448,192,10962,128,0,11507:0:0:0:0:
64,192,11689,1,0,0:0:0:0:
192,192,12052,1,0,0:0:0:0:
320,192,12416,1,0,0:0:0:0:
320,192,12780,1,0,0:0:0:0:
192,192,13143,1,0,0:0:0:0:
64,192,13507,1,0,0:0:0:0:
192,192,13871,1,0,0:0:0:0:
320,192,14234,1,0,0:0:0:0:
448,192,14598,1,0,0:0:0:0:
320,192,14962,1,0,0:0:0:0:
192,192,15325,1,0,0:0:0:0:
192,192,15689,1,0,0:0:0:0:
320,192,16052,1,0,0:0:0:0:
448,192,16416,1,0,0:0:0:0:
320,192,16780,1,0,0:0:0:0:
192,192,17143,1,0,0:0:0:0:
64,192,17507,1,0,0:0:0:0:
448,192,18234,1,0,0:0:0:0:
192,192,18962,1,0,0:0:0:0:
320,192,18962,1,0,0:0:0:0:
64,192,19325,1,0,0:0:0:0:
192,192,19689,1,0,0:0:0:0:
320,192,19689,1,0,0:0:0:0:
448,192,20052,1,0,0:0:0:0:
320,192,20416,1,0,0:0:0:0:
192,192,20416,1,0,0:0:0:0:
448,192,21143,1,0,0:0:0:0:
64,192,21143,128,0,21507:0:0:0:0:
320,192,21871,1,0,0:0:0:0:
448,192,22234,1,0,0:0:0:0:
320,192,22598,1,0,0:0:0:0:
448,192,22962,1,0,0:0:0:0:
64,192,23325,128,0,23871:0:0:0:0:
320,192,23689,1,0,0:0:0:0:
192,192,24052,1,0,0:0:0:0:
448,192,24052,1,0,0:0:0:0:
320,192,24780,1,0,0:0:0:0:
64,192,24780,1,0,0:0:0:0:
192,192,25507,1,0,0:0:0:0:
448,192,26234,1,0,0:0:0:0:
320,192,26234,1,0,0:0:0:0:
192,192,26962,1,0,0:0:0:0:
448,192,27689,128,0,28052:0:0:0:0:
320,192,28234,1,0,0:0:0:0:
64,192,28416,1,0,0:0:0:0:
192,192,28598,1,0,0:0:0:0:
320,192,28780,1,0,0:0:0:0:
192,192,29143,1,0,0:0:0:0:
64,192,29143,1,0,0:0:0:0:
320,192,29871,1,0,0:0:0:0:
448,192,29871,1,0,0:0:0:0:
192,192,30234,1,0,0:0:0:0:
64,192,30234,1,0,0:0:0:0:
320,192,30598,1,0,0:0:0:0:
192,192,30962,1,0,0:0:0:0:
64,192,31325,1,0,0:0:0:0:
192,192,31689,1,0,0:0:0:0:
192,192,32052,1,0,0:0:0:0:
320,192,32416,1,0,0:0:0:0:
192,192,32780,1,0,0:0:0:0:
320,192,33143,1,0,0:0:0:0:
448,192,33507,1,0,0:0:0:0:
448,192,34234,128,0,34598:0:0:0:0:
64,192,34234,128,0,34598:0:0:0:0:
192,192,34962,1,0,0:0:0:0:
320,192,34962,1,0,0:0:0:0:
448,192,35325,1,0,0:0:0:0:
64,192,35325,1,0,0:0:0:0:
320,192,35689,1,0,0:0:0:0:
192,192,35689,1,0,0:0:0:0:
448,192,36052,1,0,0:0:0:0:
64,192,36052,1,0,0:0:0:0:
320,192,36416,1,0,0:0:0:0:
192,192,36416,1,0,0:0:0:0:
448,192,36780,1,0,0:0:0:0:
320,192,37143,1,0,0:0:0:0:
192,192,37507,1,0,0:0:0:0:
64,192,37871,1,0,0:0:0:0:
448,192,37871,1,0,0:0:0:0:
192,192,38234,1,0,0:0:0:0:
320,192,38234,1,0,0:0:0:0:
448,192,38598,1,0,0:0:0:0:
64,192,38598,1,0,0:0:0:0:
192,192,38962,1,0,0:0:0:0:
320,192,38962,1,0,0:0:0:0:
448,192,39325,1,0,0:0:0:0:
320,192,39689,1,0,0:0:0:0:
192,192,40052,1,0,0:0:0:0:
64,192,40416,1,0,0:0:0:0:
64,192,40780,1,0,0:0:0:0:
448,192,41507,1,0,0:0:0:0:
64,192,42234,1,0,0:0:0:0:
448,192,42598,1,0,0:0:0:0:
64,192,42962,1,0,0:0:0:0:
448,192,43325,1,0,0:0:0:0:
64,192,43689,1,0,0:0:0:0:
320,192,44416,1,0,0:0:0:0:
64,192,45143,1,0,0:0:0:0:
192,192,45507,1,0,0:0:0:0:
320,192,45871,1,0,0:0:0:0:
448,192,46234,1,0,0:0:0:0:
64,192,46598,128,0,47371:0:0:0:0:
448,192,46598,1,0,0:0:0:0:
320,192,46982,1,0,0:0:0:0:
192,192,47371,1,0,0:0:0:0:
448,192,47765,128,0,49358:0:0:0:0:
320,192,48187,128,0,49358:0:0:0:0:
192,192,48634,128,0,49358:0:0:0:0:
64,192,49095,128,0,49358:0:0:0:0:
448,192,49621,1,0,0:0:0:0:
320,192,49808,1,0,0:0:0:0:
192,192,49996,1,0,0:0:0:0:
