osu file format v14

[General]
AudioFilename: audio.mp3
AudioLeadIn: 0
PreviewTime: 53
Countdown: 0
SampleSet: Soft
StackLeniency: 0.8
Mode: 3
LetterboxInBreaks: 0
SpecialStyle: 1
WidescreenStoryboard: 0

[Editor]
DistanceSpacing: 1.4
BeatDivisor: 12
GridSize: 16
TimelineZoom: 1

[Metadata]
Title:FREEDOM DiVE
TitleUnicode:FREEDOM DiVE↓
Artist:R3 Music Box
ArtistUnicode:R3 Music Box
Creator:Feerum
Version:Normal
Source:BMS
Tags:Parousia xi cytus voez chunithm happy calm piano
BeatmapID:1413320
BeatmapSetID:667988

[Difficulty]
HPDrainRate:7
CircleSize:8
OverallDifficulty:7
ApproachRate:10
SliderMultiplier:1.4
SliderTickRate:1

[Events]
//Background and Video events
0,0,"BG.jpg",0,0
//Break Periods
//Storyboard Layer 0 (Background)
//Storyboard Layer 1 (Fail)
//Storyboard Layer 2 (Pass)
//Storyboard Layer 3 (Foreground)
//Storyboard Sound Samples

[TimingPoints]
53,727.272727272727,4,2,1,30,1,0
53,-99.3975903614458,4,2,1,30,0,0
46598,769.230769230769,4,2,1,30,1,0
46598,-93.9759036144578,4,2,1,30,0,0
46982,779.220779220779,4,2,1,30,1,0
46982,-92.7710843373494,4,2,1,30,0,0
47371,789.473684210526,4,2,1,30,1,0
47371,-91.566265060241,4,2,1,30,0,0
47765,845.070422535211,4,2,1,30,1,0
47765,-85.5421686746988,4,2,1,30,0,0
48187,895.522388059701,4,2,1,30,1,0
48187,-80.7228915662651,4,2,1,30,0,0
48634,923.076923076923,4,2,1,30,1,0
48634,-78.3132530120482,4,2,1,30,0,0
49095,1034.48275862069,4,2,1,30,1,0
49095,-69.8795180722891,4,2,1,30,0,0
49612,1142.85714285714,4,2,1,30,1,0
49612,-63.2530120481929,4,2,1,30,0,0
49820,1188.11881188119,4,2,1,30,1,0
49820,-60.8433734939758,4,2,1,30,0,0
50000,1200,4,2,1,30,1,0
50000,-60.2409638554217,4,2,1,30,0,0

[HitObjects]
32,192,53,5,0,0:0:0:0:
224,192,53,1,0,0:0:0:0:
416,192,53,1,0,0:0:0:50:soft-hitwhistle.wav
352,192,416,1,0,0:0:0:0:
480,192,780,1,0,0:0:0:0:
160,192,780,1,0,0:0:0:0:
224,192,1143,1,0,0:0:0:0:
96,192,1507,1,0,0:0:0:0:
416,192,1507,1,0,0:0:0:50:soft-hitwhistle.wav
480,192,1871,1,0,0:0:0:0:
352,192,2234,1,0,0:0:0:0:
160,192,2234,1,0,0:0:0:0:
416,192,2598,1,0,0:0:0:0:
32,192,2962,1,0,0:0:0:0:
160,192,2962,1,0,0:0:0:50:soft-hitwhistle.wav
352,192,2962,1,0,0:0:0:0:
224,192,3325,1,0,0:0:0:0:
288,192,3689,1,0,0:0:0:0:
96,192,3689,1,0,0:0:0:0:
416,192,4052,1,0,0:0:0:0:
224,192,4416,1,0,0:0:0:50:soft-hitwhistle.wav
160,192,4416,1,0,0:0:0:0:
352,192,4780,1,0,0:0:0:0:
96,192,4962,1,0,0:0:0:0:
160,192,5143,1,0,0:0:0:0:
480,192,5143,1,0,0:0:0:0:
224,192,5325,1,0,0:0:0:0:
288,192,5507,1,0,0:0:0:0:
96,192,5507,1,0,0:0:0:0:
352,192,5689,1,0,0:0:0:0:
32,192,5871,1,0,0:0:0:0:
160,192,5871,1,0,0:0:0:0:
416,192,5871,1,0,0:0:0:50:soft-hitwhistle.wav
288,192,6234,1,0,0:0:0:0:
416,192,6598,1,0,0:0:0:0:
224,192,6598,1,0,0:0:0:0:
352,192,6962,5,0,0:0:0:0:
160,192,6962,1,0,0:0:0:0:
32,192,7325,5,0,0:0:0:0:
224,192,7325,1,0,0:0:0:0:
480,192,7325,1,0,0:0:0:50:soft-hitwhistle.wav
416,192,7689,1,0,0:0:0:0:
160,192,7689,1,0,0:0:0:0:
352,192,8052,1,0,0:0:0:0:
96,192,8052,1,0,0:0:0:0:
288,192,8416,1,0,0:0:0:0:
160,192,8416,1,0,0:0:0:0:
32,192,8780,1,0,0:0:0:0:
288,192,8780,1,0,0:0:0:50:soft-hitwhistle.wav
160,192,8780,1,0,0:0:0:0:
416,192,9143,1,0,0:0:0:0:
96,192,9143,1,0,0:0:0:0:
352,192,9507,1,0,0:0:0:0:
224,192,9507,1,0,0:0:0:0:
480,192,9871,1,0,0:0:0:0:
160,192,9871,1,0,0:0:0:0:
32,192,10234,1,0,0:0:0:0:
288,192,10234,1,0,0:0:0:0:
416,192,10234,1,0,0:0:0:50:soft-hitwhistle.wav
224,192,10598,1,0,0:0:0:0:
352,192,10962,1,0,0:0:0:0:
160,192,10962,1,0,0:0:0:0:
288,192,11325,1,0,0:0:0:0:
32,192,11689,5,0,0:0:0:0:
160,192,11689,1,0,0:0:0:50:soft-hitwhistle.wav
416,192,11689,1,0,0:0:0:0:
352,192,12052,1,0,0:0:0:0:
224,192,12052,1,0,0:0:0:0:
288,192,12416,1,0,0:0:0:0:
480,192,12416,1,0,0:0:0:0:
224,192,12780,1,0,0:0:0:0:
96,192,12780,1,0,0:0:0:0:
32,192,13143,1,0,0:0:0:0:
288,192,13143,1,0,0:0:0:0:
480,192,13143,1,0,0:0:0:50:soft-hitwhistle.wav
224,192,13507,1,0,0:0:0:0:
416,192,13507,1,0,0:0:0:0:
32,192,13871,1,0,0:0:0:0:
352,192,13871,1,0,0:0:0:0:
160,192,13871,1,0,0:0:0:50:soft-hitwhistle.wav
288,192,14234,1,0,0:0:0:0:
96,192,14234,1,0,0:0:0:0:
32,192,14598,1,0,0:0:0:0:
224,192,14598,1,0,0:0:0:50:soft-hitwhistle.wav
480,192,14598,1,0,0:0:0:0:
352,192,14962,1,0,0:0:0:0:
160,192,14962,1,0,0:0:0:0:
480,192,15325,1,0,0:0:0:0:
288,192,15325,1,0,0:0:0:0:
352,192,15689,1,0,0:0:0:0:
224,192,15689,1,0,0:0:0:0:
32,192,16052,1,0,0:0:0:0:
416,192,16052,1,0,0:0:0:50:soft-hitwhistle.wav
160,192,16052,1,0,0:0:0:0:
352,192,16416,1,0,0:0:0:0:
96,192,16416,1,0,0:0:0:0:
32,192,16780,1,0,0:0:0:0:
224,192,16780,1,0,0:0:0:50:soft-hitwhistle.wav
416,192,16780,1,0,0:0:0:0:
288,192,17143,1,0,0:0:0:0:
352,192,17143,1,0,0:0:0:0:
32,192,17507,1,0,0:0:0:0:
480,192,17507,1,0,0:0:0:0:
416,192,17507,1,0,0:0:0:50:soft-hitwhistle.wav
160,192,17871,1,0,0:0:0:0:
96,192,18234,1,0,0:0:0:0:
224,192,18234,1,0,0:0:0:0:
352,192,18598,1,0,0:0:0:0:
32,192,18962,1,0,0:0:0:0:
416,192,18962,1,0,0:0:0:50:soft-hitwhistle.wav
480,192,18962,1,0,0:0:0:0:
224,192,19325,1,0,0:0:0:0:
96,192,19325,1,0,0:0:0:0:
160,192,19689,1,0,0:0:0:50:soft-hitwhistle.wav
288,192,19689,1,0,0:0:0:0:
224,192,20052,1,0,0:0:0:0:
352,192,20052,1,0,0:0:0:0:
32,192,20416,1,0,0:0:0:0:
288,192,20416,1,0,0:0:0:50:soft-hitwhistle.wav
160,192,20416,1,0,0:0:0:0:
416,192,20780,1,0,0:0:0:0:
352,192,21143,1,0,0:0:0:0:
96,192,21143,1,0,0:0:0:0:
224,192,21507,1,0,0:0:0:0:
480,192,21871,1,0,0:0:0:0:
352,192,21871,1,0,0:0:0:50:soft-hitwhistle.wav
416,192,22234,1,0,0:0:0:50:soft-hitwhistle.wav
288,192,22234,1,0,0:0:0:0:
352,192,22598,1,0,0:0:0:0:
224,192,22598,1,0,0:0:0:50:soft-hitwhistle.wav
288,192,22962,1,0,0:0:0:50:soft-hitwhistle.wav
160,192,22962,1,0,0:0:0:0:
32,192,23325,1,0,0:0:0:0:
96,192,23325,1,0,0:0:0:50:soft-hitwhistle.wav
224,192,23325,1,0,0:0:0:0:
416,192,23689,1,0,0:0:0:0:
352,192,24052,1,0,0:0:0:0:
288,192,24052,1,0,0:0:0:0:
160,192,24416,1,0,0:0:0:0:
224,192,24780,1,0,0:0:0:50:soft-hitwhistle.wav
416,192,24780,1,0,0:0:0:0:
96,192,25143,1,0,0:0:0:0:
160,192,25507,1,0,0:0:0:0:
352,192,25507,1,0,0:0:0:0:
480,192,25871,5,0,0:0:0:0:
32,192,26234,5,0,0:0:0:0:
160,192,26234,1,0,0:0:0:0:
352,192,26234,1,0,0:0:0:50:soft-hitwhistle.wav
224,192,26598,1,0,0:0:0:0:
96,192,26962,1,0,0:0:0:0:
288,192,26962,1,0,0:0:0:0:
480,192,27325,1,0,0:0:0:0:
160,192,27689,1,0,0:0:0:0:
224,192,27689,1,0,0:0:0:50:soft-hitwhistle.wav
416,192,28052,1,0,0:0:0:0:
96,192,28234,1,0,0:0:0:0:
224,192,28416,1,0,0:0:0:0:
352,192,28416,1,0,0:0:0:0:
160,192,28598,1,0,0:0:0:0:
416,192,28780,1,0,0:0:0:0:
288,192,28780,1,0,0:0:0:0:
224,192,28962,1,0,0:0:0:0:
32,192,29143,1,0,0:0:0:0:
480,192,29143,1,0,0:0:0:0:
352,192,29143,1,0,0:0:0:50:soft-hitwhistle.wav
160,192,29507,1,0,0:0:0:0:
352,192,29871,1,0,0:0:0:0:
288,192,29871,1,0,0:0:0:0:
224,192,30234,1,0,0:0:0:0:
96,192,30234,1,0,0:0:0:0:
32,192,30598,1,0,0:0:0:0:
416,192,30598,1,0,0:0:0:50:soft-hitwhistle.wav
480,192,30598,1,0,0:0:0:0:
352,192,30962,1,0,0:0:0:0:
224,192,30962,1,0,0:0:0:0:
288,192,31325,1,0,0:0:0:0:
160,192,31325,1,0,0:0:0:0:
96,192,31689,1,0,0:0:0:0:
224,192,31689,1,0,0:0:0:0:
32,192,32052,1,0,0:0:0:0:
96,192,32052,1,0,0:0:0:50:soft-hitwhistle.wav
224,192,32052,1,0,0:0:0:0:
288,192,32416,1,0,0:0:0:0:
416,192,32416,1,0,0:0:0:0:
352,192,32780,1,0,0:0:0:0:
224,192,32780,1,0,0:0:0:0:
416,192,33143,1,0,0:0:0:0:
160,192,33143,1,0,0:0:0:0:
32,192,33507,1,0,0:0:0:0:
224,192,33507,1,0,0:0:0:0:
288,192,33507,1,0,0:0:0:50:soft-hitwhistle.wav
352,192,33871,1,0,0:0:0:0:
96,192,34234,1,0,0:0:0:0:
416,192,34234,1,0,0:0:0:0:
224,192,34598,1,0,0:0:0:0:
32,192,34962,1,0,0:0:0:0:
160,192,34962,1,0,0:0:0:0:
352,192,34962,1,0,0:0:0:50:soft-hitwhistle.wav
224,192,35325,1,0,0:0:0:0:
416,192,35325,1,0,0:0:0:0:
288,192,35689,1,0,0:0:0:0:
480,192,35689,1,0,0:0:0:0:
160,192,36052,1,0,0:0:0:0:
352,192,36052,1,0,0:0:0:0:
32,192,36416,1,0,0:0:0:0:
480,192,36416,1,0,0:0:0:0:
224,192,36416,1,0,0:0:0:50:soft-hitwhistle.wav
416,192,36780,1,0,0:0:0:0:
96,192,36780,1,0,0:0:0:0:
32,192,37143,1,0,0:0:0:0:
160,192,37143,1,0,0:0:0:0:
480,192,37143,1,0,0:0:0:50:soft-hitwhistle.wav
224,192,37507,1,0,0:0:0:0:
288,192,37507,1,0,0:0:0:0:
32,192,37871,1,0,0:0:0:0:
416,192,37871,1,0,0:0:0:0:
96,192,37871,1,0,0:0:0:50:soft-hitwhistle.wav
160,192,38234,1,0,0:0:0:0:
352,192,38234,1,0,0:0:0:0:
224,192,38598,1,0,0:0:0:0:
480,192,38598,1,0,0:0:0:0:
96,192,38962,1,0,0:0:0:0:
288,192,38962,1,0,0:0:0:0:
32,192,39325,1,0,0:0:0:0:
480,192,39325,1,0,0:0:0:0:
352,192,39325,1,0,0:0:0:50:soft-hitwhistle.wav
416,192,39689,1,0,0:0:0:0:
288,192,39689,1,0,0:0:0:0:
32,192,40052,1,0,0:0:0:0:
224,192,40052,1,0,0:0:0:0:
96,192,40052,1,0,0:0:0:50:soft-hitwhistle.wav
288,192,40416,1,0,0:0:0:0:
160,192,40416,1,0,0:0:0:0:
32,192,40780,1,0,0:0:0:0:
352,192,40780,1,0,0:0:0:0:
480,192,40780,1,0,0:0:0:50:soft-hitwhistle.wav
224,192,41143,1,0,0:0:0:0:
352,192,41507,1,0,0:0:0:0:
160,192,41507,1,0,0:0:0:0:
416,192,41871,1,0,0:0:0:0:
32,192,42234,1,0,0:0:0:0:
480,192,42234,1,0,0:0:0:0:
288,192,42234,1,0,0:0:0:50:soft-hitwhistle.wav
352,192,42598,1,0,0:0:0:0:
160,192,42598,1,0,0:0:0:0:
480,192,42962,1,0,0:0:0:50:soft-hitwhistle.wav
288,192,42962,1,0,0:0:0:0:
96,192,43325,1,0,0:0:0:0:
416,192,43325,1,0,0:0:0:0:
32,192,43689,1,0,0:0:0:0:
288,192,43689,1,0,0:0:0:50:soft-hitwhistle.wav
480,192,43689,1,0,0:0:0:0:
160,192,44052,1,0,0:0:0:0:
224,192,44416,1,0,0:0:0:0:
96,192,44416,1,0,0:0:0:0:
352,192,44780,1,0,0:0:0:0:
480,192,45143,1,0,0:0:0:50:soft-hitwhistle.wav
288,192,45143,1,0,0:0:0:0:
416,192,45507,1,0,0:0:0:0:
224,192,45507,1,0,0:0:0:50:soft-hitwhistle.wav
352,192,45871,1,0,0:0:0:50:soft-hitwhistle.wav
160,192,45871,1,0,0:0:0:0:
288,192,46234,1,0,0:0:0:0:
96,192,46234,1,0,0:0:0:50:soft-hitwhistle.wav
32,192,46598,5,0,0:0:0:0:
224,192,46598,1,0,0:0:0:50:soft-hitwhistle.wav
160,192,46598,1,0,0:0:0:0:
96,192,46982,1,0,0:0:0:0:
288,192,47371,1,0,0:0:0:0:
160,192,47765,1,0,0:0:0:0:
224,192,48187,1,0,0:0:0:0:
288,192,48634,1,0,0:0:0:0:
352,192,49095,1,0,0:0:0:0:
96,192,49612,1,0,0:0:0:0:
288,192,49820,1,0,0:0:0:0:
480,192,50000,1,0,0:0:0:0:
