osu file format v14

[General]
AudioFilename: audio.mp3
AudioLeadIn: 0
PreviewTime: -1
Countdown: 0
SampleSet: Soft
StackLeniency: 0.7
Mode: 0
LetterboxInBreaks: 0
WidescreenStoryboard: 1

[Editor]
DistanceSpacing: 1.2
BeatDivisor: 4
GridSize: 8
TimelineZoom: 1

[Metadata]
Title:FREEDOM DiVE
TitleUnicode:FREEDOM DiVE
Artist:R3 Music Box
ArtistUnicode:R3 Music Box
Creator:Chippy
Version:FOUR DIMENSIONS
Source:BMS
Tags:
BeatmapID:1505102
BeatmapSetID:711920

[Difficulty]
HPDrainRate:2
CircleSize:2.3
OverallDifficulty:2
ApproachRate:4
SliderMultiplier:1.5
SliderTickRate:2

[Events]
//Background and Video events
0,0,"freedomdivr.png",0,0
//Break Periods
//Storyboard Layer 0 (Background)
//Storyboard Layer 1 (Fail)
//Storyboard Layer 2 (Pass)
//Storyboard Layer 3 (Foreground)
//Storyboard Sound Samples

[TimingPoints]
52,727.272727272727,4,2,1,45,1,0
46961,-100,4,2,1,25,0,0
48779,-100,4,2,1,15,0,0

[Colours]
Combo1 : 205,58,94
Combo2 : 21,234,128
Combo3 : 21,232,255

[HitObjects]
151,107,52,6,0,P|221:85|293:103,1,150,2|0,0:0|0:0,0:0:0:0:
299,283,1506,2,0,P|228:304|156:286,1,150,2|0,0:0|0:0,0:0:0:0:
11,178,2961,6,0,L|0:327,1,150,2|0,0:0|0:0,0:0:0:0:
178,308,4415,2,0,L|189:158,1,150,2|2,0:0|0:0,0:0:0:0:
255,96,5506,1,2,0:0:0:0:
320,158,5870,5,2,0:0:0:0:
337,335,6597,2,0,P|369:352|407:354,1,75,2|0,0:0|0:0,0:0:0:0:
479,300,7324,2,0,P|495:333|496:370,2,75,2|2|2,0:0|0:0|0:0,0:0:0:0:
421,230,8415,1,0,0:0:0:0:
363,160,8779,6,0,P|364:122|380:89,1,75,2|0,0:0|0:0,0:0:0:0:
323,19,9506,2,0,P|290:36|252:38,1,75,2|0,0:0|0:0,0:0:0:0:
193,106,10233,2,0,P|227:172|212:245,1,150,2|2,0:0|0:0,0:0:0:0:
34,269,11688,6,0,P|0:203|15:130,1,150,2|2,0:0|0:0,0:0:0:0:
86,76,12779,1,0,0:0:0:0:
156,21,13142,2,0,P|170:49|171:103,2,75,2|2|2,0:0|0:0|0:0,0:0:0:0:
111,195,14597,6,0,P|184:210|254:179,1,150,2|2,0:0|0:0,0:0:0:0:
324,129,15688,1,0,0:0:0:0:
397,181,16051,2,0,L|409:259,2,75,2|2|2,0:0|0:0|0:0,0:0:0:0:
251,77,17506,5,2,0:0:0:0:
87,151,18233,1,2,0:0:0:0:
69,330,18961,2,0,P|102:351|136:356,2,75,2|2|2,0:0|0:0|0:0,0:0:0:0:
132,265,20051,1,2,0:0:0:0:
194,199,20415,6,0,B|267:173|267:220|344:196,1,150,2|2,0:0|0:0,0:0:0:0:
491,89,21870,2,0,L|475:9,1,75,2|0,0:0|0:0,0:0:0:0:
388,34,22597,2,0,L|402:107,1,75,2|0,0:0|0:0,0:0:0:0:
460,174,23324,6,0,P|482:245|458:315,1,150,2|0,0:0|0:0,0:0:0:0:
278,311,24779,2,0,P|256:240|280:170,1,150,2|0,0:0|0:0,0:0:0:0:
148,47,26233,6,0,L|-1:61,1,150,2|0,0:0|0:0,0:0:0:0:
94,213,27688,2,0,L|243:227,1,150,2|2,0:0|0:0,0:0:0:0:
332,238,28779,1,2,0:0:0:0:
297,156,29142,5,2,0:0:0:0:
148,53,29870,2,0,L|158:160,1,75,2|0,0:0|0:0,0:0:0:0:
86,185,30597,2,0,L|-21:174,2,75,2|2|2,0:0|0:0|0:0,0:0:0:0:
169,217,31688,1,0,0:0:0:0:
235,277,32051,6,0,P|253:309|258:346,1,75,2|0,0:0|0:0,0:0:0:0:
345,370,32779,2,0,P|363:337|393:315,1,75,2|0,0:0|0:0,0:0:0:0:
480,330,33506,2,0,P|463:259|390:225,1,150,2|2,0:0|0:0,0:0:0:0:
219,219,34961,6,0,L|195:51,1,150,2|2,0:0|0:0,0:0:0:0:
118,28,36051,1,0,0:0:0:0:
38,70,36415,2,0,L|22:177,2,75,2|2|2,0:0|0:0|0:0,0:0:0:0:
210,18,37870,6,0,L|358:39,1,150,2|2,0:0|0:0,0:0:0:0:
395,121,38961,1,0,0:0:0:0:
431,202,39324,2,0,L|505:191,2,75,2|2|2,0:0|0:0|0:0,0:0:0:0:
301,327,40779,5,2,0:0:0:0:
127,276,41506,1,2,0:0:0:0:
83,99,42233,2,0,P|118:84|155:84,2,75,2|2|2,0:0|0:0|0:0,0:0:0:0:
38,176,43324,1,2,0:0:0:0:
91,248,43688,6,0,B|164:274|164:227|241:251,1,150,2|2,0:0|0:0,0:0:0:0:
391,343,45142,2,0,P|433:349|464:339,1,75,2|0,0:0|0:0,0:0:0:0:
457,250,45870,2,0,P|415:244|383:253,1,75,2|0,0:0|0:0,0:0:0:0:
311,305,46597,5,2,0:0:0:0:
256,192,46961,12,2,50051,0:0:0:0:
