osu file format v14

[General]
AudioFilename: audio.mp3
AudioLeadIn: 0
PreviewTime: 23325
Countdown: 0
SampleSet: Soft
StackLeniency: 0.7
Mode: 3
LetterboxInBreaks: 0
SpecialStyle: 0
WidescreenStoryboard: 0

[Editor]
DistanceSpacing: 1.4
BeatDivisor: 4
GridSize: 16
TimelineZoom: 0.6999999

[Metadata]
Title:FREEDOM DiVE
TitleUnicode:FREEDOM DiVE↓
Artist:R3 Music Box
ArtistUnicode:R3 Music Box
Creator:-XxbluezaperxX-
Version:CLASSiCAL DiMENSiON
Source:MAXBEAT
Tags:Soothing Calm Relaxing DiMENSIONS xi Parousia happy bms melodic video game instrumental Shad0wStar
BeatmapID:3659745
BeatmapSetID:1786568

[Difficulty]
HPDrainRate:7.5
CircleSize:4
OverallDifficulty:7.3
ApproachRate:5
SliderMultiplier:1.4
SliderTickRate:1

[Events]
//Background and Video events
0,0,"KWW.jpg",0,0
//Break Periods
//Storyboard Layer 0 (Background)
//Storyboard Layer 1 (Fail)
//Storyboard Layer 2 (Pass)
//Storyboard Layer 3 (Foreground)
//Storyboard Layer 4 (Overlay)
//Storyboard Sound Samples

[TimingPoints]
53,727.272727272727,4,2,1,30,1,0
53,-99.3975903614458,4,2,1,30,0,0
46598,769.230769230769,4,2,1,30,1,0
46598,-93.9759036144578,4,2,1,30,0,0
46982,779.220779220779,4,2,1,30,1,0
46982,-92.7710843373494,4,2,1,30,0,0
47371,789.473684210526,4,2,1,30,1,0
47371,-91.566265060241,4,2,1,30,0,0
47765,845.070422535211,4,2,1,30,1,0
47765,-85.5421686746988,4,2,1,30,0,0
48187,895.522388059701,4,2,1,30,1,0
48187,-80.7228915662651,4,2,1,30,0,0
48634,923.076923076923,4,2,1,30,1,0
48634,-78.3132530120482,4,2,1,30,0,0
49095,1034.48275862069,4,2,1,30,1,0
49095,-69.8795180722891,4,2,1,30,0,0
49612,1142.85714285714,4,2,1,30,1,0
49612,-63.2530120481929,4,2,1,30,0,0
49820,1188.11881188119,4,2,1,30,1,0
49820,-60.8433734939758,4,2,1,30,0,0
50000,1200,4,2,1,30,1,0
50000,-60.2409638554217,4,2,1,30,0,0

[HitObjects]
64,192,53,5,0,0:0:0:35:LR_NBell_G4.wav
448,192,53,1,0,0:0:0:35:LR_NBell_B5.wav
192,192,416,1,0,0:0:0:0:
320,192,780,1,0,0:0:0:35:LR_NBell_C6.wav
448,192,780,1,0,0:0:0:0:
192,192,1143,1,0,0:0:0:0:
64,192,1507,1,0,0:0:0:35:LR_NBell_B5.wav
448,192,1507,1,0,0:0:0:0:
320,192,1871,1,0,0:0:0:0:
64,192,2234,1,0,0:0:0:35:LR_NBell_A5.wav
192,192,2234,1,0,0:0:0:0:
320,192,2598,1,0,0:0:0:0:
448,192,2962,1,0,0:0:0:35:LR_NBell_E4.wav
192,192,2962,1,0,0:0:0:35:LR_NBell_A5.wav
64,192,3325,1,0,0:0:0:0:
448,192,3689,1,0,0:0:0:35:LR_NBell_G5.wav
320,192,3689,1,0,0:0:0:0:
192,192,4052,1,0,0:0:0:0:
64,192,4416,1,0,0:0:0:35:LR_NBell_F#5.wav
448,192,4416,1,0,0:0:0:0:
320,192,4780,1,0,0:0:0:0:
64,192,4962,1,0,0:0:0:35:LR_NBell_G5.wav
192,192,5143,1,0,0:0:0:35:LR_NBell_A5.wav
320,192,5325,1,0,0:0:0:35:LR_NBell_B5.wav
448,192,5507,1,0,0:0:0:35:LR_NBell_C6.wav
320,192,5689,1,0,0:0:0:35:LR_NBell_D6.wav
64,192,5871,1,0,0:0:0:35:LR_NBell_C4.wav
192,192,5871,1,0,0:0:0:35:LR_NBell_E6.wav
448,192,6234,1,0,0:0:0:0:
64,192,6598,1,0,0:0:0:35:LR_NBell_F#6.wav
192,192,6598,1,0,0:0:0:0:
64,192,6962,1,0,0:0:0:35:LR_NBell_E6.wav
448,192,6962,1,0,0:0:0:0:
192,192,7325,1,0,0:0:0:35:LR_NBell_D4.wav
320,192,7325,1,0,0:0:0:35:LR_NBell_A6.wav
192,192,7689,1,0,0:0:0:35:LR_NBell_G6.wav
448,192,7689,1,0,0:0:0:0:
64,192,8052,1,0,0:0:0:35:LR_NBell_F#6.wav
320,192,8052,1,0,0:0:0:0:
192,192,8416,1,0,0:0:0:35:LR_NBell_E6.wav
320,192,8416,1,0,0:0:0:0:
64,192,8780,1,0,0:0:0:35:bell_b3.wav
448,192,8780,1,0,0:0:0:35:LR_NBell_E6.wav
64,192,9143,1,0,0:0:0:35:LR_NBell_D6.wav
320,192,9143,1,0,0:0:0:0:
192,192,9507,1,0,0:0:0:35:LR_NBell_C#6.wav
320,192,9507,1,0,0:0:0:0:
192,192,9871,1,0,0:0:0:35:LR_NBell_E6.wav
448,192,9871,1,0,0:0:0:0:
64,192,10234,1,0,0:0:0:35:LR_NBell_E4.wav
320,192,10234,1,0,0:0:0:35:LR_NBell_D6.wav
192,192,10598,1,0,0:0:0:0:
320,192,10962,1,0,0:0:0:35:LR_NBell_G5.wav
448,192,10962,1,0,0:0:0:0:
64,192,11325,1,0,0:0:0:0:
64,192,11689,1,0,0:0:0:70:LR_NBell_C4.wav
320,192,11689,1,0,0:0:0:35:LR_NBell_C6.wav
192,192,12052,1,0,0:0:0:35:LR_NBell_D6.wav
320,192,12052,1,0,0:0:0:0:
64,192,12416,1,0,0:0:0:35:LR_NBell_E6.wav
448,192,12416,1,0,0:0:0:0:
64,192,12780,1,0,0:0:0:35:LR_NBell_C6.wav
192,192,12780,1,0,0:0:0:0:
320,192,13143,1,0,0:0:0:35:LR_NBell_D4.wav
448,192,13143,1,0,0:0:0:35:LR_NBell_F#6.wav
192,192,13507,1,0,0:0:0:35:LR_NBell_E6.wav
448,192,13507,1,0,0:0:0:0:
64,192,13871,1,0,0:0:0:35:LR_NBell_C4.wav
192,192,13871,1,0,0:0:0:35:LR_NBell_D6.wav
64,192,14234,1,0,0:0:0:35:LR_NBell_C6.wav
448,192,14234,1,0,0:0:0:0:
192,192,14598,1,0,0:0:0:35:bell_b3.wav
320,192,14598,1,0,0:0:0:35:LR_NBell_B5.wav
192,192,14962,1,0,0:0:0:35:LR_NBell_D#6.wav
448,192,14962,1,0,0:0:0:0:
64,192,15325,1,0,0:0:0:35:LR_NBell_F#6.wav
320,192,15325,1,0,0:0:0:0:
64,192,15689,1,0,0:0:0:35:LR_NBell_B5.wav
448,192,15689,1,0,0:0:0:0:
320,192,16052,1,0,0:0:0:35:LR_NBell_E4.wav
448,192,16052,1,0,0:0:0:35:LR_NBell_A6.wav
192,192,16416,1,0,0:0:0:35:LR_NBell_G6.wav
320,192,16416,1,0,0:0:0:0:
64,192,16780,1,0,0:0:0:35:LR_NBell_D4.wav
192,192,16780,1,0,0:0:0:35:LR_NBell_F#6.wav
320,192,17143,1,0,0:0:0:35:LR_NBell_G6.wav
448,192,17143,1,0,0:0:0:0:
64,192,17507,1,0,0:0:0:35:LR_NBell_C4.wav
448,192,17507,1,0,0:0:0:35:LR_NBell_B6.wav
320,192,17871,1,0,0:0:0:0:
192,192,18234,1,0,0:0:0:35:LR_NBell_E6.wav
448,192,18234,1,0,0:0:0:0:
64,192,18598,1,0,0:0:0:0:
320,192,18962,1,0,0:0:0:35:LR_NBell_C#4.wav
448,192,18962,1,0,0:0:0:35:LR_NBell_B6.wav
64,192,19325,1,0,0:0:0:35:LR_NBell_E6.wav
192,192,19325,1,0,0:0:0:0:
320,192,19689,1,0,0:0:0:35:LR_NBell_B6.wav
448,192,19689,1,0,0:0:0:0:
192,192,20052,1,0,0:0:0:70:bell_c7.wav
320,192,20052,1,0,0:0:0:0:
64,192,20416,1,0,0:0:0:70:LR_NBell_D4.wav
192,192,20416,1,0,0:0:0:35:LR_NBell_B6.wav
448,192,20780,1,0,0:0:0:0:
64,192,21143,1,0,0:0:0:35:LR_NBell_A6.wav
320,192,21143,1,0,0:0:0:0:
192,192,21507,1,0,0:0:0:0:
64,192,21871,1,0,0:0:0:70:bell_d7.wav
320,192,22234,1,0,0:0:0:70:bell_c7.wav
192,192,22598,1,0,0:0:0:35:LR_NBell_B6.wav
448,192,22962,1,0,0:0:0:35:LR_NBell_A6.wav
64,192,23325,1,0,0:0:0:35:LR_NBell_G4.wav
320,192,23325,1,0,0:0:0:35:LR_NBell_B5.wav
192,192,23689,1,0,0:0:0:0:
320,192,24052,1,0,0:0:0:35:LR_NBell_C6.wav
448,192,24052,1,0,0:0:0:0:
64,192,24416,1,0,0:0:0:0:
192,192,24780,1,0,0:0:0:35:LR_NBell_B5.wav
448,192,24780,1,0,0:0:0:0:
320,192,25143,1,0,0:0:0:0:
64,192,25507,1,0,0:0:0:35:LR_NBell_A5.wav
448,192,25507,1,0,0:0:0:0:
320,192,25871,1,0,0:0:0:0:
64,192,26234,1,0,0:0:0:35:LR_NBell_E4.wav
192,192,26234,1,0,0:0:0:35:LR_NBell_A5.wav
448,192,26598,1,0,0:0:0:0:
192,192,26962,1,0,0:0:0:35:LR_NBell_G5.wav
320,192,26962,1,0,0:0:0:0:
64,192,27325,1,0,0:0:0:0:
192,192,27689,1,0,0:0:0:35:LR_NBell_F#5.wav
448,192,27689,1,0,0:0:0:0:
320,192,28052,1,0,0:0:0:0:
64,192,28234,1,0,0:0:0:35:LR_NBell_G5.wav
192,192,28416,1,0,0:0:0:35:LR_NBell_A5.wav
320,192,28598,1,0,0:0:0:35:LR_NBell_B5.wav
448,192,28780,1,0,0:0:0:35:LR_NBell_C6.wav
320,192,28962,1,0,0:0:0:35:LR_NBell_D6.wav
64,192,29143,1,0,0:0:0:35:LR_NBell_C4.wav
448,192,29143,1,0,0:0:0:35:LR_NBell_E6.wav
192,192,29507,1,0,0:0:0:0:
64,192,29871,1,0,0:0:0:35:LR_NBell_F#6.wav
192,192,29871,1,0,0:0:0:0:
320,192,30234,1,0,0:0:0:35:LR_NBell_E6.wav
448,192,30234,1,0,0:0:0:0:
64,192,30598,1,0,0:0:0:35:LR_NBell_D4.wav
320,192,30598,1,0,0:0:0:35:LR_NBell_A6.wav
192,192,30962,1,0,0:0:0:35:LR_NBell_G6.wav
448,192,30962,1,0,0:0:0:0:
64,192,31325,1,0,0:0:0:35:LR_NBell_F#6.wav
320,192,31325,1,0,0:0:0:0:
192,192,31689,1,0,0:0:0:35:LR_NBell_E6.wav
448,192,31689,1,0,0:0:0:0:
64,192,32052,1,0,0:0:0:35:bell_b3.wav
192,192,32052,1,0,0:0:0:35:LR_NBell_E6.wav
64,192,32416,1,0,0:0:0:35:LR_NBell_D6.wav
320,192,32416,1,0,0:0:0:0:
320,192,32780,1,0,0:0:0:35:LR_NBell_C#6.wav
448,192,32780,1,0,0:0:0:0:
64,192,33143,1,0,0:0:0:35:LR_NBell_E6.wav
448,192,33143,1,0,0:0:0:0:
192,192,33507,1,0,0:0:0:35:LR_NBell_E4.wav
320,192,33507,1,0,0:0:0:35:LR_NBell_D6.wav
64,192,33871,1,0,0:0:0:0:
192,192,34234,1,0,0:0:0:35:LR_NBell_G5.wav
448,192,34234,1,0,0:0:0:0:
320,192,34598,1,0,0:0:0:0:
192,192,34962,1,0,0:0:0:70:LR_NBell_C4.wav
64,192,34962,1,0,0:0:0:35:LR_NBell_C6.wav
192,192,35325,1,0,0:0:0:35:LR_NBell_D6.wav
448,192,35325,1,0,0:0:0:0:
64,192,35689,1,0,0:0:0:35:LR_NBell_E6.wav
320,192,35689,1,0,0:0:0:0:
192,192,36052,1,0,0:0:0:35:LR_NBell_C6.wav
448,192,36052,1,0,0:0:0:0:
64,192,36416,1,0,0:0:0:35:LR_NBell_D4.wav
320,192,36416,1,0,0:0:0:35:LR_NBell_F#6.wav
192,192,36780,1,0,0:0:0:35:LR_NBell_E6.wav
448,192,36780,1,0,0:0:0:0:
320,192,37143,1,0,0:0:0:35:LR_NBell_C4.wav
448,192,37143,1,0,0:0:0:35:LR_NBell_D6.wav
64,192,37507,1,0,0:0:0:35:LR_NBell_C6.wav
320,192,37507,1,0,0:0:0:0:
64,192,37871,1,0,0:0:0:35:bell_b3.wav
192,192,37871,1,0,0:0:0:35:LR_NBell_B5.wav
192,192,38234,1,0,0:0:0:35:LR_NBell_D#6.wav
448,192,38234,1,0,0:0:0:0:
320,192,38598,1,0,0:0:0:35:LR_NBell_F#6.wav
448,192,38598,1,0,0:0:0:0:
192,192,38962,1,0,0:0:0:35:LR_NBell_B5.wav
320,192,38962,1,0,0:0:0:0:
64,192,39325,1,0,0:0:0:35:LR_NBell_E4.wav
448,192,39325,1,0,0:0:0:35:LR_NBell_A6.wav
64,192,39689,1,0,0:0:0:35:LR_NBell_G6.wav
320,192,39689,1,0,0:0:0:0:
192,192,40052,1,0,0:0:0:35:LR_NBell_D4.wav
448,192,40052,1,0,0:0:0:35:LR_NBell_F#6.wav
64,192,40416,1,0,0:0:0:35:LR_NBell_G6.wav
192,192,40416,1,0,0:0:0:0:
320,192,40780,1,0,0:0:0:35:LR_NBell_C4.wav
448,192,40780,1,0,0:0:0:35:LR_NBell_B6.wav
64,192,41143,1,0,0:0:0:0:
192,192,41507,1,0,0:0:0:35:LR_NBell_E6.wav
448,192,41507,1,0,0:0:0:0:
320,192,41871,1,0,0:0:0:0:
64,192,42234,1,0,0:0:0:35:LR_NBell_C#4.wav
448,192,42234,1,0,0:0:0:35:LR_NBell_B6.wav
192,192,42598,1,0,0:0:0:35:LR_NBell_E6.wav
448,192,42598,1,0,0:0:0:0:
64,192,42962,1,0,0:0:0:35:LR_NBell_B6.wav
192,192,42962,1,0,0:0:0:0:
320,192,43325,1,0,0:0:0:70:bell_c7.wav
448,192,43325,1,0,0:0:0:0:
64,192,43689,1,0,0:0:0:70:LR_NBell_D4.wav
448,192,43689,1,0,0:0:0:35:LR_NBell_B6.wav
192,192,44052,1,0,0:0:0:0:
320,192,44416,1,0,0:0:0:35:LR_NBell_A6.wav
448,192,44416,1,0,0:0:0:0:
64,192,44780,1,0,0:0:0:0:
64,192,45143,1,0,0:0:0:70:bell_d7.wav
192,192,45507,1,0,0:0:0:70:bell_c7.wav
320,192,45871,1,0,0:0:0:35:LR_NBell_B6.wav
448,192,46234,1,0,0:0:0:35:LR_NBell_A6.wav
64,192,46598,1,0,0:0:0:35:LR_NBell_G4.wav
448,192,46598,1,0,0:0:0:35:LR_NBell_G6.wav
448,192,46982,1,0,0:0:0:35:LR_NBell_B4.wav
320,192,47371,1,0,0:0:0:35:LR_NBell_G5.wav
192,192,47765,1,0,0:0:0:35:LR_NBell_D5.wav
64,192,48187,1,0,0:0:0:35:LR_NBell_G5.wav
320,192,48634,1,0,0:0:0:35:LR_NBell_B5.wav
192,192,49095,1,0,0:0:0:35:LR_NBell_D6.wav
64,192,49612,1,0,0:0:0:35:LR_NBell_B5.wav
192,192,49820,1,0,0:0:0:35:LR_NBell_D6.wav
320,192,50000,1,0,0:0:0:35:LR_NBell_G6.wav
