osu file format v14

[General]
AudioFilename: audio.mp3
AudioLeadIn: 0
PreviewTime: 78
Countdown: 0
SampleSet: Soft
StackLeniency: 0.3
Mode: 0
LetterboxInBreaks: 0
EpilepsyWarning: 1
WidescreenStoryboard: 1

[Editor]
DistanceSpacing: 0.9
BeatDivisor: 4
GridSize: 4
TimelineZoom: 1

[Metadata]
Title:Dreams of an Absolution
TitleUnicode:Dreams of an Absolution
Artist:R3 Music Box
ArtistUnicode:R3 Music Box
Creator:Joe Castle
Version:Voli's Absolution
Source:SONIC THE HEDGEHOG
Tags:Bentley Jones Lee Brotherton 2006 Silver's Theme SEGA Wave Master A_r_M_i_N armin Voli HootOwlStar RyoKazuka Megapcmx
BeatmapID:1481076
BeatmapSetID:696381

[Difficulty]
HPDrainRate:5
CircleSize:7
OverallDifficulty:7
ApproachRate:6.7
SliderMultiplier:1.4
SliderTickRate:1

[Events]
//Background and Video events
0,0,"bg.jpg",0,0
//Break Periods
//Storyboard Layer 0 (Background)
//Storyboard Layer 1 (Fail)
//Storyboard Layer 2 (Pass)
//Storyboard Layer 3 (Foreground)
Sprite,Foreground,Centre,"sb\highlight.png",249,155 C,0,78,,192,192,192 F,2,78,1478,1,0 S,2,78,1478,0.6,0.12 P,0,78,1478,A
Sprite,Foreground,Centre,"sb\highlight.png",380,125 C,0,381,,128,128,128 F,2,381,1781,1,0 S,2,381,1781,0.6,0.12 P,0,381,1781,A
Sprite,Foreground,Centre,"sb\highlight.png",435,155 C,0,684,,128,128,128 F,2,684,2084,1,0 S,2,684,2084,0.6,0.12 P,0,684,2084,A
Sprite,Foreground,Centre,"sb\highlight.png",381,188 C,0,987,,128,128,128 F,2,987,2387,1,0 S,2,987,2387,0.6,0.12 P,0,987,2387,A
Sprite,Foreground,Centre,"sb\highlight.png",0,0 C,0,1290,,128,128,128 M,0,1290,1365,480,113,489.7288,127.4711 F,2,1290,2993,1,0 S,2,1290,2993,0.6,0.12 P,0,1290,2993,A M,0,1365,1441,489.7288,127.4711,494.9874,144.0926 M,0,1441,1517,494.9874,144.0926,495.3525,161.5184 M,0,1517,1593,495.3525,161.5184,491,178
Sprite,Foreground,Centre,"sb\highlight.png",0,0 C,0,1896,,128,128,128 M,0,1896,1971,446,268,458.7923,279.2675 F,2,1896,3902,1,0 S,2,1896,3902,0.6,0.12 P,0,1896,3902,A M,0,1971,2047,458.7923,279.2675,475.6109,280.703 M,0,2047,2123,475.6109,280.703,489.8604,271.9163 M,0,2123,2199,489.8604,271.9163,496.028,256.4712 M,0,2199,2274,496.028,256.4712,491.791,240.4718 M,0,2274,2350,491.791,240.4718,478.8856,230.189 M,0,2350,2426,478.8856,230.189,462.1438,228.5949 M,0,2426,2502,462.1438,228.5949,449,237
Sprite,Foreground,Centre,"sb\highlight.png",0,0 C,0,2805,,192,192,192 M,0,2805,2880,337,274,326.8891,287.9949 F,2,2805,4508,1,0 S,2,2805,4508,0.6,0.12 P,0,2805,4508,A M,0,2880,2956,326.8891,287.9949,321.7926,304.3119 M,0,2956,3032,321.7926,304.3119,322.9408,321.3684 M,0,3032,3108,322.9408,321.3684,329.5772,337.3045
Sprite,Foreground,Centre,"sb\highlight.png",0,0 C,0,3259,,192,192,192 M,0,3259,3334,387,312,379.6041,296.3873 F,2,3259,4962,1,0 S,2,3259,4962,0.6,0.12 P,0,3259,4962,A M,0,3334,3410,379.6041,296.3873,367.8835,283.918 M,0,3410,3486,367.8835,283.918,352.5315,276.3527 M,0,3486,3562,352.5315,276.3527,335.423,273.9737
Sprite,Foreground,Centre,"sb\highlight.png",0,0 C,0,3714,,192,192,192 M,0,3714,3789,329,337,346.2334,338.2527 F,2,3714,5417,1,0 S,2,3714,5417,0.6,0.12 P,0,3714,5417,A M,0,3789,3865,346.2334,338.2527,362.8611,334.1853 M,0,3865,3941,362.8611,334.1853,377.0078,324.5453 M,0,3941,4017,377.0078,324.5453,387.5322,310.8447
Sprite,Foreground,Centre,"sb\highlight.png",281,274 C,0,4320,,192,192,192 F,2,4320,5720,1,0 S,2,4320,5720,0.6,0.12 P,0,4320,5720,A
Sprite,Foreground,Centre,"sb\highlight.png",0,0 C,0,4623,,192,192,192 M,0,4623,4698,385,230,371.6238,218.9706 F,2,4623,6326,1,0 S,2,4623,6326,0.6,0.12 P,0,4623,6326,A M,0,4698,4774,371.6238,218.9706,355.9037,211.9459 M,0,4774,4850,355.9037,211.9459,338.7925,210.0254 M,0,4850,4926,338.7925,210.0254,321.6806,212.8
Sprite,Foreground,Centre,"sb\highlight.png",188,168 C,0,5229,,128,128,128 F,2,5229,6629,1,0 S,2,5229,6629,0.6,0.12 P,0,5229,6629,A
Sprite,Foreground,Centre,"sb\highlight.png",175,106 C,0,5532,,128,128,128 F,2,5532,6932,1,0 S,2,5532,6932,0.6,0.12 P,0,5532,6932,A
Sprite,Foreground,Centre,"sb\highlight.png",235,126 C,0,5835,,128,128,128 F,2,5835,7235,1,0 S,2,5835,7235,0.6,0.12 P,0,5835,7235,A
Sprite,Foreground,Centre,"sb\highlight.png",0,0 C,0,6138,,128,128,128 M,0,6138,6213,168,222,150.7122,224.7167 F,2,6138,7841,1,0 S,2,6138,7841,0.6,0.12 P,0,6138,7841,A M,0,6213,6289,150.7122,224.7167,133.4243,227.4333 M,0,6289,6365,133.4243,227.4333,116.1365,230.15 M,0,6365,6441,116.1365,230.15,98.8486,232.8667
Sprite,Foreground,Centre,"sb\highlight.png",0,0 C,0,6744,,128,128,128 M,0,6744,6819,231,282,213.9884,278.0452 F,2,6744,8750,1,0 S,2,6744,8750,0.6,0.12 P,0,6744,8750,A M,0,6819,6895,213.9884,278.0452,196.554,277.224 M,0,6895,6971,196.554,277.224,179.2676,279.5596 M,0,6971,7047,179.2676,279.5596,162.6942,284.9723 M,0,7047,7122,162.6942,284.9723,147.3755,293.2824 M,0,7122,7198,147.3755,293.2824,133.8116,304.216 M,0,7198,7274,133.8116,304.216,122.4454,317.414 M,0,7274,7350,122.4454,317.414,113.3548,332.3087
Sprite,Foreground,Centre,"sb\highlight.png",0,0 C,0,7653,,192,192,192 M,0,7653,7728,210,395,220.1751,380.8725 F,2,7653,9356,1,0 S,2,7653,9356,0.6,0.12 P,0,7653,9356,A M,0,7728,7804,220.1751,380.8725,224.9654,364.1377 M,0,7804,7880,224.9654,364.1377,223.8072,346.7729 M,0,7880,7956,223.8072,346.7729,217,331
Sprite,Foreground,Centre,"sb\highlight.png",0,0 C,0,8108,,192,192,192 M,0,8108,8183,159,357,165.2725,373.2271 F,2,8108,9811,1,0 S,2,8108,9811,0.6,0.12 P,0,8108,9811,A M,0,8183,8259,165.2725,373.2271,177.0487,386.0319 M,0,8259,8335,177.0487,386.0319,192.6939,393.6375 M,0,8335,8411,192.6939,393.6375,210,395
Sprite,Foreground,Centre,"sb\highlight.png",0,0 C,0,8562,,192,192,192 M,0,8562,8637,218,332,200.8665,329.9143 F,2,8562,10265,1,0 S,2,8562,10265,0.6,0.12 P,0,8562,10265,A M,0,8637,8713,200.8665,329.9143,184.1437,333.416 M,0,8713,8789,184.1437,333.416,169.8648,342.7992 M,0,8789,8865,169.8648,342.7992,159.3061,356.45
Sprite,Foreground,Centre,"sb\highlight.png",276,376 C,0,9168,,192,192,192 F,2,9168,10568,1,0 S,2,9168,10568,0.6,0.12 P,0,9168,10568,A
Sprite,Foreground,Centre,"sb\highlight.png",294,315 C,0,9471,,192,192,192 F,2,9471,10871,1,0 S,2,9471,10871,0.6,0.12 P,0,9471,10871,A
Sprite,Foreground,Centre,"sb\highlight.png",290,307 C,0,9774,,192,192,192 F,2,9774,11174,1,0 S,2,9774,11174,0.6,0.12 P,0,9774,11174,A
Sprite,Foreground,Centre,"sb\highlight.png",388,212 C,0,10077,,128,128,128 F,2,10077,11477,1,0 S,2,10077,11477,0.6,0.12 P,0,10077,11477,A
Sprite,Foreground,Centre,"sb\highlight.png",443,242 C,0,10380,,128,128,128 F,2,10380,11780,1,0 S,2,10380,11780,0.6,0.12 P,0,10380,11780,A
Sprite,Foreground,Centre,"sb\highlight.png",389,275 C,0,10683,,128,128,128 F,2,10683,12083,1,0 S,2,10683,12083,0.6,0.12 P,0,10683,12083,A
Sprite,Foreground,Centre,"sb\highlight.png",0,0 C,0,10987,,128,128,128 M,0,10987,11062,350,177,363.6798,166.4861 F,2,10987,12690,1,0 S,2,10987,12690,0.6,0.12 P,0,10987,12690,A M,0,11062,11138,363.6798,166.4861,379.8484,160.9992 M,0,11138,11214,379.8484,160.9992,396.9035,161.845 M,0,11214,11290,396.9035,161.845,412.891,168.3238
Sprite,Foreground,Centre,"sb\highlight.png",0,0 C,0,11593,,128,128,128 M,0,11593,11668,443,242,442.2195,224.5174 F,2,11593,13599,1,0 S,2,11593,13599,0.6,0.12 P,0,11593,13599,A M,0,11668,11744,442.2195,224.5174,441.4391,207.0348 M,0,11744,11820,441.4391,207.0348,440.6586,189.5522 M,0,11820,11896,440.6586,189.5522,439.8781,172.0696 M,0,11896,11971,439.8781,172.0696,439.0976,154.5871 M,0,11971,12047,439.0976,154.5871,438.3172,137.1045 M,0,12047,12123,438.3172,137.1045,444.8629,122.2012 M,0,12123,12199,444.8629,122.2012,456.4239,109.0638
Sprite,Foreground,Centre,"sb\highlight.png",0,0 C,0,12502,,192,192,192 M,0,12502,12577,501,203,501.8963,220.477 F,2,12502,14205,1,0 S,2,12502,14205,0.6,0.12 P,0,12502,14205,A M,0,12577,12653,501.8963,220.477,502.7925,237.9541 M,0,12653,12729,502.7925,237.9541,503.6888,255.4311 M,0,12729,12805,503.6888,255.4311,504.585,272.9081
Sprite,Foreground,Centre,"sb\highlight.png",0,0 C,0,12956,,192,192,192 M,0,12956,13031,442,241,456.5222,231.235 F,2,12956,14659,1,0 S,2,12956,14659,0.6,0.12 P,0,12956,14659,A M,0,13031,13107,456.5222,231.235,471.0445,221.4701 M,0,13107,13183,471.0445,221.4701,485.5667,211.7051 M,0,13183,13259,485.5667,211.7051,500,202
Sprite,Foreground,Centre,"sb\highlight.png",0,0 C,0,13411,,192,192,192 M,0,13411,13486,505,273,489.3974,265.0749 F,2,13411,15114,1,0 S,2,13411,15114,0.6,0.12 P,0,13411,15114,A M,0,13486,13562,489.3974,265.0749,473.7947,257.1497 M,0,13562,13638,473.7947,257.1497,458.1921,249.2246 M,0,13638,13714,458.1921,249.2246,442.5895,241.2994
Sprite,Foreground,Centre,"sb\highlight.png",350,303 C,0,14017,,192,192,192 F,2,14017,15417,1,0 S,2,14017,15417,0.6,0.12 P,0,14017,15417,A
Sprite,Foreground,Centre,"sb\highlight.png",320,248 C,0,14320,,192,192,192 F,2,14320,15720,1,0 S,2,14320,15720,0.6,0.12 P,0,14320,15720,A
Sprite,Foreground,Centre,"sb\highlight.png",290,303 C,0,14623,,192,192,192 F,2,14623,16023,1,0 S,2,14623,16023,0.6,0.12 P,0,14623,16023,A
Sprite,Foreground,Centre,"sb\highlight.png",380,358 C,0,14926,,128,128,128 F,2,14926,16326,1,0 S,2,14926,16326,0.6,0.12 P,0,14926,16326,A
Sprite,Foreground,Centre,"sb\highlight.png",384,366 C,0,15229,,128,128,128 F,2,15229,16629,1,0 S,2,15229,16629,0.6,0.12 P,0,15229,16629,A
Sprite,Foreground,Centre,"sb\highlight.png",418,322 C,0,15532,,128,128,128 F,2,15532,16932,1,0 S,2,15532,16932,0.6,0.12 P,0,15532,16932,A
Sprite,Foreground,Centre,"sb\highlight.png",414,314 C,0,15835,,128,128,128 F,2,15835,17235,1,0 S,2,15835,17235,0.6,0.12 P,0,15835,17235,A
Sprite,Foreground,Centre,"sb\highlight.png",449,185 C,0,16138,,192,192,192 F,2,16138,17538,1,0 S,2,16138,17538,0.6,0.12 P,0,16138,17538,A
Sprite,Foreground,Centre,"sb\highlight.png",344,216 C,0,16441,,192,192,192 F,2,16441,17841,1,0 S,2,16441,17841,0.6,0.12 P,0,16441,17841,A
Sprite,Foreground,Centre,"sb\highlight.png",409,130 C,0,16744,,192,192,192 F,2,16744,18144,1,0 S,2,16744,18144,0.6,0.12 P,0,16744,18144,A
Sprite,Foreground,Centre,"sb\highlight.png",407,238 C,0,17047,,192,192,192 F,2,17047,18447,1,0 S,2,17047,18447,0.6,0.12 P,0,17047,18447,A
Sprite,Foreground,Centre,"sb\highlight.png",0,0 C,0,17350,,128,128,128 M,0,17350,17425,345,148,327.5378,146.8512 F,2,17350,19204,1,0 S,2,17350,19204,0.6,0.12 P,0,17350,19204,A M,0,17425,17501,327.5378,146.8512,310.0755,145.7023 M,0,17501,17577,310.0755,145.7023,292.6133,144.5535 M,0,17577,17653,292.6133,144.5535,275.151,143.4047 M,0,17653,17728,275.151,143.4047,260.1483,150.0814 M,0,17728,17804,260.1483,150.0814,246.4831,161.0135
Sprite,Foreground,Centre,"sb\highlight.png",0,0 C,0,17956,,128,128,128 M,0,17956,18031,218,117,231.3439,105.6779 F,2,17956,19962,1,0 S,2,17956,19962,0.6,0.12 P,0,17956,19962,A M,0,18031,18107,231.3439,105.6779,244.6878,94.35579 M,0,18107,18183,244.6878,94.35579,260.1992,89.64555 M,0,18183,18259,260.1992,89.64555,277.6563,90.87062 M,0,18259,18334,277.6563,90.87062,295.1133,92.09567 M,0,18334,18410,295.1133,92.09567,312.5704,93.32073 M,0,18410,18486,312.5704,93.32073,330.0275,94.54579 M,0,18486,18562,330.0275,94.54579,347.4846,95.77084
Sprite,Foreground,Centre,"sb\highlight.png",444,180 C,0,18865,,128,128,128 F,2,18865,20265,1,0 S,2,18865,20265,0.6,0.12 P,0,18865,20265,A
Sprite,Foreground,Centre,"sb\highlight.png",385,214 C,0,19168,,128,128,128 F,2,19168,20568,1,0 S,2,19168,20568,0.6,0.12 P,0,19168,20568,A
Sprite,Foreground,Centre,"sb\highlight.png",377,212 C,0,19471,,128,128,128 F,2,19471,20871,1,0 S,2,19471,20871,0.6,0.12 P,0,19471,20871,A
Sprite,Foreground,Centre,"sb\highlight.png",310,311 C,0,19774,,192,192,192 F,2,19774,21174,1,0 S,2,19774,21174,0.6,0.12 P,0,19774,21174,A
Sprite,Foreground,Centre,"sb\highlight.png",291,370 C,0,20077,,192,192,192 F,2,20077,21477,1,0 S,2,20077,21477,0.6,0.12 P,0,20077,21477,A
Sprite,Foreground,Centre,"sb\highlight.png",248,324 C,0,20380,,192,192,192 F,2,20380,21780,1,0 S,2,20380,21780,0.6,0.12 P,0,20380,21780,A
Sprite,Foreground,Centre,"sb\highlight.png",0,0 C,0,20684,,192,192,192 M,0,20684,20759,327,252,344.4886,251.3679 F,2,20684,22387,1,0 S,2,20684,22387,0.6,0.12 P,0,20684,22387,A M,0,20759,20835,344.4886,251.3679,361.9772,250.7358 M,0,20835,20911,361.9772,250.7358,379.4657,250.1037 M,0,20911,20987,379.4657,250.1037,396.9543,249.4715
Sprite,Foreground,Centre,"sb\highlight.png",0,0 C,0,21290,,192,192,192 M,0,21290,21365,264,178,279.4777,186.0549 F,2,21290,23296,1,0 S,2,21290,23296,0.6,0.12 P,0,21290,23296,A M,0,21365,21441,279.4777,186.0549,296.3083,190.5847 M,0,21441,21517,296.3083,190.5847,313.7039,191.3844 M,0,21517,21593,313.7039,191.3844,330.851,188.4226 M,0,21593,21668,330.851,188.4226,346.9491,181.8422 M,0,21668,21744,346.9491,181.8422,361.2469,171.9539 M,0,21744,21820,361.2469,171.9539,373.0775,159.222 M,0,21820,21896,373.0775,159.222,382,145
Sprite,Foreground,Centre,"sb\highlight.png",0,0 C,0,22199,,128,128,128 M,0,22199,22274,301,79,287.3201,89.29386 F,2,22199,23902,1,0 S,2,22199,23902,0.6,0.12 P,0,22199,23902,A M,0,22274,22350,287.3201,89.29386,279.0839,103.9888 M,0,22350,22426,279.0839,103.9888,278.4643,120.8232 M,0,22426,22502,278.4643,120.8232,284.821,136.7174
Sprite,Foreground,Centre,"sb\highlight.png",0,0 C,0,22653,,128,128,128 M,0,22653,22728,344,122,341.7476,105.0227 F,2,22653,24356,1,0 S,2,22653,24356,0.6,0.12 P,0,22653,24356,A M,0,22728,22804,341.7476,105.0227,333.0926,90.55925 M,0,22804,22880,333.0926,90.55925,318.8546,81.53566 M,0,22880,22956,318.8546,81.53566,301.9275,78.96056
Sprite,Foreground,Centre,"sb\highlight.png",0,0 C,0,23108,,128,128,128 M,0,23108,23183,285,137,300.8641,143.4953 F,2,23108,24811,1,0 S,2,23108,24811,0.6,0.12 P,0,23108,24811,A M,0,23183,23259,300.8641,143.4953,317.7461,143.2808 M,0,23259,23335,317.7461,143.2808,332.7863,135.6092 M,0,23335,23411,332.7863,135.6092,343.7535,122.4379
Sprite,Foreground,Centre,"sb\highlight.png",244,187 C,0,23714,,128,128,128 F,2,23714,25114,1,0 S,2,23714,25114,0.6,0.12 P,0,23714,25114,A
Sprite,Foreground,Centre,"sb\highlight.png",247,198 C,0,24017,,128,128,128 F,2,24017,25417,1,0 S,2,24017,25417,0.6,0.12 P,0,24017,25417,A
Sprite,Foreground,Centre,"sb\highlight.png",231,136 C,0,24320,,128,128,128 F,2,24320,25720,1,0 S,2,24320,25720,0.6,0.12 P,0,24320,25720,A
Sprite,Foreground,Centre,"sb\highlight.png",187,247 C,0,24623,,192,192,192 F,2,24623,26023,1,0 S,2,24623,26023,0.6,0.12 P,0,24623,26023,A
Sprite,Foreground,Centre,"sb\highlight.png",129,220 C,0,24926,,192,192,192 F,2,24926,26326,1,0 S,2,24926,26326,0.6,0.12 P,0,24926,26326,A
Sprite,Foreground,Centre,"sb\highlight.png",180,182 C,0,25229,,192,192,192 F,2,25229,26629,1,0 S,2,25229,26629,0.6,0.12 P,0,25229,26629,A
Sprite,Foreground,Centre,"sb\highlight.png",0,0 C,0,25532,,192,192,192 M,0,25532,25607,233,274,221.0897,286.6027 F,2,25532,27235,1,0 S,2,25532,27235,0.6,0.12 P,0,25532,27235,A M,0,25607,25683,221.0897,286.6027,206.3621,295.5338 M,0,25683,25759,206.3621,295.5338,189.6238,299.5956 M,0,25759,25835,189.6238,299.5956,172.2932,299.0445
Sprite,Foreground,Centre,"sb\highlight.png",0,0 C,0,26138,,192,192,192 M,0,26138,26213,282,306,271.8362,320.2112 F,2,26138,28144,1,0 S,2,26138,28144,0.6,0.12 P,0,26138,28144,A M,0,26213,26289,271.8362,320.2112,259.5439,332.613 M,0,26289,26365,259.5439,332.613,245.4384,342.8912 M,0,26365,26441,245.4384,342.8912,229.8808,350.7858 M,0,26441,26516,229.8808,350.7858,213.2686,356.097 M,0,26516,26592,213.2686,356.097,196.0258,358.6907 M,0,26592,26668,196.0258,358.6907,178.5923,358.5016 M,0,26668,26744,178.5923,358.5016,162,356
Sprite,Foreground,Centre,"sb\highlight.png",0,0 C,0,27047,,128,128,128 M,0,27047,27122,118,234,135.2337,237.0412 F,2,27047,28750,1,0 S,2,27047,28750,0.6,0.12 P,0,27047,28750,A M,0,27122,27198,135.2337,237.0412,152.4674,240.0825 M,0,27198,27274,152.4674,240.0825,169.7011,243.1237 M,0,27274,27350,169.7011,243.1237,186,246
Sprite,Foreground,Centre,"sb\highlight.png",0,0 C,0,27502,,128,128,128 M,0,27502,27577,164,182,152.5292,195.2163 F,2,27502,29205,1,0 S,2,27502,29205,0.6,0.12 P,0,27502,29205,A M,0,27577,27653,152.5292,195.2163,141.0584,208.4326 M,0,27653,27729,141.0584,208.4326,129.5877,221.649 M,0,27729,27805,129.5877,221.649,118.1169,234.8653
Sprite,Foreground,Centre,"sb\highlight.png",0,0 C,0,27956,,128,128,128 M,0,27956,28031,188,247,181.9823,230.5672 F,2,27956,29659,1,0 S,2,27956,29659,0.6,0.12 P,0,27956,29659,A M,0,28031,28107,181.9823,230.5672,175.9647,214.1343 M,0,28107,28183,175.9647,214.1343,169.947,197.7015 M,0,28183,28259,169.947,197.7015,163.9294,181.2687
Sprite,Foreground,Centre,"sb\highlight.png",190,132 C,0,28562,,128,128,128 F,2,28562,29962,1,0 S,2,28562,29962,0.6,0.12 P,0,28562,29962,A
Sprite,Foreground,Centre,"sb\highlight.png",0,0 C,0,28865,,128,128,128 M,0,28865,28940,244,148,250.199,164.3653 F,2,28865,30568,1,0 S,2,28865,30568,0.6,0.12 P,0,28865,30568,A M,0,28940,29016,250.199,164.3653,256.3979,180.7306 M,0,29016,29092,256.3979,180.7306,262.5969,197.0959 M,0,29092,29168,262.5969,197.0959,268.7959,213.4612
Sprite,Foreground,Centre,"sb\highlight.png",395,255 C,0,29471,,192,192,192 F,2,29471,30871,1,0 S,2,29471,30871,0.6,0.12 P,0,29471,30871,A
Sprite,Foreground,Centre,"sb\highlight.png",453,228 C,0,29774,,192,192,192 F,2,29774,31174,1,0 S,2,29774,31174,0.6,0.12 P,0,29774,31174,A
Sprite,Foreground,Centre,"sb\highlight.png",402,190 C,0,30077,,192,192,192 F,2,30077,31477,1,0 S,2,30077,31477,0.6,0.12 P,0,30077,31477,A
Sprite,Foreground,Centre,"sb\highlight.png",0,0 C,0,30380,,192,192,192 M,0,30380,30455,345,277,352.6341,292.6265 F,2,30380,32083,1,0 S,2,30380,32083,0.6,0.12 P,0,30380,32083,A M,0,30455,30531,352.6341,292.6265,365.5219,304.2988 M,0,30531,30607,365.5219,304.2988,381.8188,310.3502 M,0,30607,30683,381.8188,310.3502,399,310
Sprite,Foreground,Centre,"sb\highlight.png",0,0 C,0,30987,,192,192,192 M,0,30987,31062,301,230,311.4877,243.9542 F,2,30987,32993,1,0 S,2,30987,32993,0.6,0.12 P,0,30987,32993,A M,0,31062,31138,311.4877,243.9542,318.9451,259.7203 M,0,31138,31214,318.9451,259.7203,323.0728,276.6522 M,0,31214,31290,323.0728,276.6522,323.7065,294.0574 M,0,31290,31365,323.7065,294.0574,320.8242,311.225 M,0,31365,31441,320.8242,311.225,314.5466,327.4541 M,0,31441,31517,314.5466,327.4541,305.1322,342.0828 M,0,31517,31593,305.1322,342.0828,293.2103,354.8081
Sprite,Foreground,Centre,"sb\highlight.png",0,0 C,0,31896,,128,128,128 M,0,31896,31971,208,288,216.1292,272.87 F,2,31896,33599,1,0 S,2,31896,33599,0.6,0.12 P,0,31896,33599,A M,0,31971,32047,216.1292,272.87,229.1347,262.0147 M,0,32047,32123,229.1347,262.0147,245.5132,257.6861 M,0,32123,32199,245.5132,257.6861,262.5482,259.8605
Sprite,Foreground,Centre,"sb\highlight.png",0,0 C,0,32350,,128,128,128 M,0,32350,32425,259,321,241.8199,321.3557 F,2,32350,34053,1,0 S,2,32350,34053,0.6,0.12 P,0,32350,34053,A M,0,32425,32501,241.8199,321.3557,225.9231,315.4609 M,0,32501,32577,225.9231,315.4609,213.9328,303.4728 M,0,32577,32653,213.9328,303.4728,207.1607,287.6831
Sprite,Foreground,Centre,"sb\highlight.png",0,0 C,0,32805,,128,128,128 M,0,32805,32880,262,259,271.3377,273.6203 F,2,32805,34508,1,0 S,2,32805,34508,0.6,0.12 P,0,32805,34508,A M,0,32880,32956,271.3377,273.6203,273.8347,290.7621 M,0,32956,33032,273.8347,290.7621,269.0692,307.3912 M,0,33032,33108,269.0692,307.3912,259,320
Sprite,Foreground,Centre,"sb\highlight.png",265,191 C,0,33411,,128,128,128 F,2,33411,34811,1,0 S,2,33411,34811,0.6,0.12 P,0,33411,34811,A
Sprite,Foreground,Centre,"sb\highlight.png",320,156 C,0,33714,,128,128,128 F,2,33714,35114,1,0 S,2,33714,35114,0.6,0.12 P,0,33714,35114,A
Sprite,Foreground,Centre,"sb\highlight.png",375,191 C,0,34017,,128,128,128 F,2,34017,35417,1,0 S,2,34017,35417,0.6,0.12 P,0,34017,35417,A
Sprite,Foreground,Centre,"sb\highlight.png",320,252 C,0,34320,,192,192,192 F,2,34320,35720,1,0 S,2,34320,35720,0.6,0.12 P,0,34320,35720,A
Sprite,Foreground,Centre,"sb\highlight.png",316,259 C,0,34623,,192,192,192 F,2,34623,36023,1,0 S,2,34623,36023,0.6,0.12 P,0,34623,36023,A
Sprite,Foreground,Centre,"sb\highlight.png",371,257 C,0,34926,,192,192,192 F,2,34926,36326,1,0 S,2,34926,36326,0.6,0.12 P,0,34926,36326,A
Sprite,Foreground,Centre,"sb\highlight.png",375,249 C,0,35229,,192,192,192 F,2,35229,36629,1,0 S,2,35229,36629,0.6,0.12 P,0,35229,36629,A
Sprite,Foreground,Centre,"sb\highlight.png",461,351 C,0,35532,,128,128,128 F,2,35532,36932,1,0 S,2,35532,36932,0.6,0.12 P,0,35532,36932,A
Sprite,Foreground,Centre,"sb\highlight.png",357,388 C,0,35835,,128,128,128 F,2,35835,37235,1,0 S,2,35835,37235,0.6,0.12 P,0,35835,37235,A
Sprite,Foreground,Centre,"sb\highlight.png",419,298 C,0,36138,,128,128,128 F,2,36138,37538,1,0 S,2,36138,37538,0.6,0.12 P,0,36138,37538,A
Sprite,Foreground,Centre,"sb\highlight.png",421,406 C,0,36441,,128,128,128 F,2,36441,37841,1,0 S,2,36441,37841,0.6,0.12 P,0,36441,37841,A
Sprite,Foreground,Centre,"sb\highlight.png",0,0 C,0,36744,,192,192,192 M,0,36744,36819,356,320,355.0099,303.4594 F,2,36744,38598,1,0 S,2,36744,38598,0.6,0.12 P,0,36744,38598,A M,0,36819,36895,355.0099,303.4594,341.4273,294.5546 M,0,36895,36971,341.4273,294.5546,326.4482,300.0637 M,0,36971,37047,326.4482,300.0637,322.0436,315.1628 M,0,37047,37122,322.0436,315.1628,331.4808,327.5206 M,0,37122,37198,331.4808,327.5206,347.6828,328.4713
Sprite,Foreground,Centre,"sb\highlight.png",0,0 C,0,37350,,192,192,192 M,0,37350,37425,268,325,266.787,307.6061 F,2,37350,39356,1,0 S,2,37350,39356,0.6,0.12 P,0,37350,39356,A M,0,37425,37501,266.787,307.6061,269.816,290.4572 M,0,37501,37577,269.816,290.4572,276.8981,274.5688 M,0,37577,37653,276.8981,274.5688,287.6061,260.8799 M,0,37653,37728,287.6061,260.8799,301.2993,250.1987 M,0,37728,37804,301.2993,250.1987,317.1621,243.1548 M,0,37804,37880,317.1621,243.1548,334.2514,240.1625 M,0,37880,37956,334.2514,240.1625,351.6426,240.9495
Sprite,Foreground,Centre,"sb\highlight.png",413,260 C,0,38259,,192,192,192 F,2,38259,39659,1,0 S,2,38259,39659,0.6,0.12 P,0,38259,39659,A
Sprite,Foreground,Centre,"sb\highlight.png",395,200 C,0,38562,,192,192,192 F,2,38562,39962,1,0 S,2,38562,39962,0.6,0.12 P,0,38562,39962,A
Sprite,Foreground,Centre,"sb\highlight.png",351,240 C,0,38865,,192,192,192 F,2,38865,40265,1,0 S,2,38865,40265,0.6,0.12 P,0,38865,40265,A
Sprite,Foreground,Centre,"sb\highlight.png",0,0 C,0,39168,,128,128,128 M,0,39168,39243,522,181,528.1453,164.7383 F,2,39168,40871,1,0 S,2,39168,40871,0.6,0.12 P,0,39168,40871,A M,0,39243,39319,528.1453,164.7383,530.427,147.5898 M,0,39319,39395,530.427,147.5898,528.1919,130.435 M,0,39395,39471,528.1919,130.435,522.0798,114.1612
Sprite,Foreground,Centre,"sb\highlight.png",467,147 C,0,39774,,128,128,128 F,2,39774,41174,1,0 S,2,39774,41174,0.6,0.12 P,0,39774,41174,A
Sprite,Foreground,Centre,"sb\highlight.png",0,0 C,0,40077,,128,128,128 M,0,40077,40152,413,260,405.6683,275.8228 F,2,40077,41780,1,0 S,2,40077,41780,0.6,0.12 P,0,40077,41780,A M,0,40152,40228,405.6683,275.8228,403.0272,293.0566 M,0,40228,40304,403.0272,293.0566,405.2831,310.3411 M,0,40304,40380,405.2831,310.3411,412,326
Sprite,Foreground,Centre,"sb\highlight.png",468,294 C,0,40683,,128,128,128 F,2,40683,42083,1,0 S,2,40683,42083,0.6,0.12 P,0,40683,42083,A
Sprite,Foreground,Centre,"sb\highlight.png",419,195 C,0,40987,,128,128,128 F,2,40987,42387,1,0 S,2,40987,42387,0.6,0.12 P,0,40987,42387,A
Sprite,Foreground,Centre,"sb\highlight.png",406,198 C,0,41290,,128,128,128 F,2,41290,42690,1,0 S,2,41290,42690,0.6,0.12 P,0,41290,42690,A
Sprite,Foreground,Centre,"sb\highlight.png",0,0 C,0,41593,,192,192,192 M,0,41593,41668,279,115,295.0722,121.9234 F,2,41593,43296,1,0 S,2,41593,43296,0.6,0.12 P,0,41593,43296,A M,0,41668,41744,295.0722,121.9234,311.1444,128.8468 M,0,41744,41820,311.1444,128.8468,327.2167,135.7703 M,0,41820,41896,327.2167,135.7703,343.2889,142.6937
Sprite,Foreground,Centre,"sb\highlight.png",334,79 C,0,42199,,192,192,192 F,2,42199,43599,1,0 S,2,42199,43599,0.6,0.12 P,0,42199,43599,A
Sprite,Foreground,Centre,"sb\highlight.png",0,0 C,0,42502,,192,192,192 M,0,42502,42577,311,204,294.9278,197.0766 F,2,42502,44205,1,0 S,2,42502,44205,0.6,0.12 P,0,42502,44205,A M,0,42577,42653,294.9278,197.0766,278.8556,190.1532 M,0,42653,42729,278.8556,190.1532,262.7833,183.2297 M,0,42729,42805,262.7833,183.2297,246.7111,176.3063
Sprite,Foreground,Centre,"sb\highlight.png",256,240 C,0,43108,,192,192,192 F,2,43108,44508,1,0 S,2,43108,44508,0.6,0.12 P,0,43108,44508,A
Sprite,Foreground,Centre,"sb\highlight.png",365,278 C,0,43411,,192,192,192 F,2,43411,44811,1,0 S,2,43411,44811,0.6,0.12 P,0,43411,44811,A
Sprite,Foreground,Centre,"sb\highlight.png",378,275 C,0,43714,,192,192,192 F,2,43714,45114,1,0 S,2,43714,45114,0.6,0.12 P,0,43714,45114,A
Sprite,Foreground,Centre,"sb\highlight.png",0,0 C,0,44017,,128,128,128 M,0,44017,44092,289,378,273.0905,384.8983 F,2,44017,45720,1,0 S,2,44017,45720,0.6,0.12 P,0,44017,45720,A M,0,44092,44168,273.0905,384.8983,256.0376,387.3247 M,0,44168,44244,256.0376,387.3247,239.0467,384.4956 M,0,44244,44320,239.0467,384.4956,223.318,377.1968
Sprite,Foreground,Centre,"sb\highlight.png",257,332 C,0,44623,,128,128,128 F,2,44623,46023,1,0 S,2,44623,46023,0.6,0.12 P,0,44623,46023,A
Sprite,Foreground,Centre,"sb\highlight.png",0,0 C,0,44926,,128,128,128 M,0,44926,45001,136,252,151.3791,243.8171 F,2,44926,46629,1,0 S,2,44926,46629,0.6,0.12 P,0,44926,46629,A M,0,45001,45077,151.3791,243.8171,168.5699,241.0092 M,0,45077,45153,168.5699,241.0092,185.7497,243.8728 M,0,45153,45229,185.7497,243.8728,201,252
Sprite,Foreground,Centre,"sb\highlight.png",168,298 C,0,45532,,128,128,128 F,2,45532,46932,1,0 S,2,45532,46932,0.6,0.12 P,0,45532,46932,A
Sprite,Foreground,Centre,"sb\highlight.png",108,196 C,0,45835,,128,128,128 F,2,45835,47235,1,0 S,2,45835,47235,0.6,0.12 P,0,45835,47235,A
Sprite,Foreground,Centre,"sb\highlight.png",111,183 C,0,46138,,128,128,128 F,2,46138,47538,1,0 S,2,46138,47538,0.6,0.12 P,0,46138,47538,A
Sprite,Foreground,Centre,"sb\highlight.png",0,0 C,0,46441,,192,192,192 M,0,46441,46516,258,159,270.0693,146.4751 F,2,46441,48144,1,0 S,2,46441,48144,0.6,0.12 P,0,46441,48144,A M,0,46516,46592,270.0693,146.4751,272.3607,129.1258 M,0,46592,46668,272.3607,129.1258,274.6522,111.7765 M,0,46668,46744,274.6522,111.7765,276.9436,94.42712
Sprite,Foreground,Centre,"sb\highlight.png",218,116 C,0,47047,,192,192,192 F,2,47047,48447,1,0 S,2,47047,48447,0.6,0.12 P,0,47047,48447,A
Sprite,Foreground,Centre,"sb\highlight.png",0,0 C,0,47350,,192,192,192 M,0,47350,47425,362,94,364.2914,111.3493 F,2,47350,49053,1,0 S,2,47350,49053,0.6,0.12 P,0,47350,49053,A M,0,47425,47501,364.2914,111.3493,366.5829,128.6987 M,0,47501,47577,366.5829,128.6987,368.8743,146.048 M,0,47577,47653,368.8743,146.048,381.1534,158.2186
Sprite,Foreground,Centre,"sb\highlight.png",421,115 C,0,47956,,192,192,192 F,2,47956,49356,1,0 S,2,47956,49356,0.6,0.12 P,0,47956,49356,A
Sprite,Foreground,Centre,"sb\highlight.png",439,172 C,0,48259,,192,192,192 F,2,48259,49659,1,0 S,2,48259,49659,0.6,0.12 P,0,48259,49659,A
Sprite,Foreground,Centre,"sb\highlight.png",381,158 C,0,48562,,192,192,192 F,2,48562,49962,1,0 S,2,48562,49962,0.6,0.12 P,0,48562,49962,A
Sprite,Foreground,Centre,"sb\highlight.png",0,0 C,0,48865,,128,128,128 M,0,48865,48940,488,139,495.375,154.6943 F,2,48865,50568,1,0 S,2,48865,50568,0.6,0.12 P,0,48865,50568,A M,0,48940,49016,495.375,154.6943,498.3157,171.6663 M,0,49016,49092,498.3157,171.6663,496.0029,188.7353 M,0,49092,49168,496.0029,188.7353,489.1855,204.6787
Sprite,Foreground,Centre,"sb\highlight.png",439,172 C,0,49471,,128,128,128 F,2,49471,50871,1,0 S,2,49471,50871,0.6,0.12 P,0,49471,50871,A
Sprite,Foreground,Centre,"sb\highlight.png",0,0 C,0,49774,,128,128,128 M,0,49774,49849,372,281,364.625,265.3057 F,2,49774,51477,1,0 S,2,49774,51477,0.6,0.12 P,0,49774,51477,A M,0,49849,49925,364.625,265.3057,361.6843,248.3337 M,0,49925,50001,361.6843,248.3337,363.9971,231.2647 M,0,50001,50077,363.9971,231.2647,370.8145,215.3213
Sprite,Foreground,Centre,"sb\highlight.png",421,248 C,0,50380,,128,128,128 F,2,50380,51780,1,0 S,2,50380,51780,0.6,0.12 P,0,50380,51780,A
Sprite,Foreground,Centre,"sb\highlight.png",461,356 C,0,50684,,128,128,128 F,2,50684,52084,1,0 S,2,50684,52084,0.6,0.12 P,0,50684,52084,A
Sprite,Foreground,Centre,"sb\highlight.png",458,368 C,0,50987,,128,128,128 F,2,50987,52387,1,0 S,2,50987,52387,0.6,0.12 P,0,50987,52387,A
Sprite,Foreground,Centre,"sb\highlight.png",0,0 C,0,51290,,192,192,192 M,0,51290,51365,324,333,306.5719,334.5844 F,2,51290,52993,1,0 S,2,51290,52993,0.6,0.12 P,0,51290,52993,A M,0,51365,51441,306.5719,334.5844,289.1437,336.1688 M,0,51441,51517,289.1437,336.1688,271.7156,337.7531 M,0,51517,51593,271.7156,337.7531,258.2224,348.104
Sprite,Foreground,Centre,"sb\highlight.png",298,398 C,0,51896,,192,192,192 F,2,51896,53296,1,0 S,2,51896,53296,0.6,0.12 P,0,51896,53296,A
Sprite,Foreground,Centre,"sb\highlight.png",0,0 C,0,52199,,192,192,192 M,0,52199,52274,186,317,168.6032,315.1022 F,2,52199,53902,1,0 S,2,52199,53902,0.6,0.12 P,0,52199,53902,A M,0,52274,52350,168.6032,315.1022,151.2064,313.2043 M,0,52350,52426,151.2064,313.2043,133.8096,311.3065 M,0,52426,52502,133.8096,311.3065,120.295,300.9641
Sprite,Foreground,Centre,"sb\highlight.png",160,252 C,0,52805,,192,192,192 F,2,52805,54205,1,0 S,2,52805,54205,0.6,0.12 P,0,52805,54205,A
Sprite,Foreground,Centre,"sb\highlight.png",276,286 C,0,53108,,192,192,192 F,2,53108,54508,1,0 S,2,53108,54508,0.6,0.12 P,0,53108,54508,A
Sprite,Foreground,Centre,"sb\highlight.png",288,285 C,0,53411,,192,192,192 F,2,53411,54811,1,0 S,2,53411,54811,0.6,0.12 P,0,53411,54811,A
Sprite,Foreground,Centre,"sb\highlight.png",0,0 C,0,53714,,128,128,128 M,0,53714,53789,246,157,250.3582,140.0514 F,2,53714,55417,1,0 S,2,53714,55417,0.6,0.12 P,0,53714,55417,A M,0,53789,53865,250.3582,140.0514,254.7164,123.1028 M,0,53865,53941,254.7164,123.1028,259.0746,106.1541 M,0,53941,54017,259.0746,106.1541,263.4329,89.2055
Sprite,Foreground,Centre,"sb\highlight.png",206,108 C,0,54320,,128,128,128 F,2,54320,55720,1,0 S,2,54320,55720,0.6,0.12 P,0,54320,55720,A
Sprite,Foreground,Centre,"sb\highlight.png",306,135 C,0,54623,,128,128,128 F,2,54623,56023,1,0 S,2,54623,56023,0.6,0.12 P,0,54623,56023,A
Sprite,Foreground,Centre,"sb\highlight.png",246,262 C,0,54926,,192,192,192 F,2,54926,56326,1,0 S,2,54926,56326,0.6,0.12 P,0,54926,56326,A
Sprite,Foreground,Centre,"sb\highlight.png",186,173 C,0,55229,,192,192,192 F,2,55229,56629,1,0 S,2,55229,56629,0.6,0.12 P,0,55229,56629,A
Sprite,Foreground,Centre,"sb\highlight.png",289,209 C,0,55532,,192,192,192 F,2,55532,56932,1,0 S,2,55532,56932,0.6,0.12 P,0,55532,56932,A
Sprite,Foreground,Centre,"sb\highlight.png",183,240 C,0,55846,,192,192,192 F,2,55846,57246,1,0 S,2,55846,57246,0.6,0.12 P,0,55846,57246,A
Sprite,Foreground,Centre,"sb\highlight.png",250,154 C,0,56152,,128,128,128 F,2,56152,57552,1,0 S,2,56152,57552,0.6,0.12 P,0,56152,57552,A
Sprite,Foreground,Centre,"sb\highlight.png",249,142 C,0,56478,,128,128,128 F,2,56478,57878,1,0 S,2,56478,57878,0.6,0.12 P,0,56478,57878,A
Sprite,Foreground,Centre,"sb\highlight.png",186,173 C,0,56804,,128,128,128 F,2,56804,58204,1,0 S,2,56804,58204,0.6,0.12 P,0,56804,58204,A
Sprite,Foreground,Centre,"sb\highlight.png",185,185 C,0,57130,,128,128,128 F,2,57130,58530,1,0 S,2,57130,58530,0.6,0.12 P,0,57130,58530,A
Sprite,Foreground,Centre,"sb\highlight.png",215,286 C,0,57478,,192,192,192 F,2,57478,58878,1,0 S,2,57478,58878,0.6,0.12 P,0,57478,58878,A
Sprite,Foreground,Centre,"sb\highlight.png",261,323 C,0,57827,,128,128,128 F,2,57827,59227,1,0 S,2,57827,59227,0.6,0.12 P,0,57827,59227,A
Sprite,Foreground,Centre,"sb\highlight.png",268,381 C,0,58184,,192,192,192 F,2,58184,59584,1,0 S,2,58184,59584,0.6,0.12 P,0,58184,59584,A
Sprite,Foreground,Centre,"sb\highlight.png",0,0 C,0,58584,,128,128,128 M,0,58584,58688,321,280,322.4325,263.1947 F,2,58584,60088,1,0 S,2,58584,60088,0.6,0.12 P,0,58584,60088,A
Sprite,Foreground,Centre,"sb\highlight.png",0,0 C,0,58792,,128,128,128 M,0,58792,58896,320,248,313.967,232.8761 F,2,58792,62067,1,0 S,2,58792,62067,0.6,0.12 P,0,58792,62067,A M,0,58896,59000,313.967,232.8761,296.9583,232.5809 M,0,59000,59104,296.9583,232.5809,283.4782,243.2543 M,0,59104,59208,283.4782,243.2543,279.4233,259.9522 M,0,59208,59312,279.4233,259.9522,285.4791,276.1523 M,0,59312,59416,285.4791,276.1523,298.3152,287.8422 M,0,59416,59521,298.3152,287.8422,314.7812,293.4081 M,0,59521,59625,314.7812,293.4081,332.1177,292.1559 M,0,59625,59729,332.1177,292.1559,347.6129,284.2781 M,0,59729,59833,347.6129,284.2781,358.9981,271.1265 M,0,59833,59937,358.9981,271.1265,365.0421,254.7971 M,0,59937,60041,365.0421,254.7971,365.5584,237.3789 M,0,60041,60146,365.5584,237.3789,360.8806,220.5825 M,0,60146,60250,360.8806,220.5825,351.5437,205.8574 M,0,60250,60354,351.5437,205.8574,338.3655,194.4477 M,0,60354,60458,338.3655,194.4477,322.441,187.3584 M,0,60458,60562,322.441,187.3584,305.1611,185.0081 M,0,60562,60667,305.1611,185.0081,287.8311,187.0769
//Storyboard Sound Samples

[TimingPoints]
78,606.060606060606,4,2,1,25,1,0
381,606.060606060606,4,2,1,25,1,0
55540,612.244897959184,4,2,1,25,1,0
56152,652.173913043478,4,2,1,25,1,0
57130,697.674418604651,4,2,1,25,1,0
57827,714.285714285714,4,2,1,25,1,0
58184,800,4,2,1,25,1,0
58584,833.333333333333,4,2,1,25,1,0
58792,-100,4,2,1,15,0,0
58896,-100,4,2,1,5,0,0

[Colours]
Combo1 : 128,128,128
Combo2 : 192,192,192
SliderBorder : 0,255,255
SliderTrackOverride : 233,233,233

[HitObjects]
185,99,78,5,0,0:0:0:0:
316,69,381,5,2,0:0:0:0:
371,99,684,1,0,0:0:0:0:
317,132,987,1,0,0:0:0:0:
416,57,1290,2,0,P|431:88|427:122,1,70,2|0,0:0|0:0,0:0:0:0:
382,212,1896,2,0,P|433:201|385:181,1,140,2|2,0:0|0:0,0:0:0:0:
273,218,2805,6,0,P|257:248|266:282,1,70,0|0,3:0|0:0,0:0:0:0:
323,256,3259,2,0,P|304:227|270:218,1,70,0|0,3:0|0:0,0:0:0:0:
265,281,3714,2,0,P|299:279|324:254,1,70,0|0,3:0|0:0,0:0:0:0:
217,218,4320,1,0,0:0:0:0:
321,174,4623,2,0,P|291:155|257:157,1,70
124,112,5229,5,2,0:0:0:0:
111,50,5532,1,0,0:0:0:0:
171,70,5835,1,0,0:0:0:0:
104,166,6138,2,0,L|34:177,1,70,2|0,0:0|0:0,0:0:0:0:
167,226,6744,2,0,P|98:229|49:277,1,140,2|2,0:0|0:0,0:0:0:0:
146,339,7653,6,0,P|161:308|153:275,1,70,0|0,3:0|0:0,0:0:0:0:
95,301,8108,2,0,P|113:330|146:339,1,70,0|0,3:0|0:0,0:0:0:0:
154,276,8562,2,0,P|119:277|95:301,1,70,0|0,3:0|0:0,0:0:0:0:
212,320,9168,1,0,0:0:0:0:
230,259,9471,1,0,0:0:0:0:
226,251,9774,1,0,0:0:0:0:
324,156,10077,5,2,0:0:0:0:
379,186,10380,1,0,0:0:0:0:
325,219,10683,1,0,0:0:0:0:
286,121,10987,2,0,P|317:104|350:113,1,70,2|0,0:0|0:0,0:0:0:0:
379,186,11593,2,0,B|374:74|374:74|396:49,1,140,2|2,0:0|0:0,0:0:0:0:
437,147,12502,6,0,L|441:225,1,70,0|0,3:0|0:0,0:0:0:0:
378,185,12956,2,0,L|436:146,1,70,0|0,3:0|0:0,0:0:0:0:
441,217,13411,2,0,L|378:185,1,70,0|0,3:0|0:0,0:0:0:0:
286,247,14017,1,0,0:0:0:0:
256,192,14320,1,0,0:0:0:0:
226,247,14623,1,2,0:0:0:0:
316,302,14926,5,0,0:0:0:0:
320,310,15229,1,0,0:0:0:0:
354,266,15532,1,0,0:0:0:0:
350,258,15835,1,0,0:0:0:0:
385,129,16138,5,2,0:0:0:0:
280,160,16441,1,2,0:0:0:0:
345,74,16744,1,2,0:0:0:0:
343,182,17047,1,2,0:0:0:0:
281,92,17350,6,0,B|205:87|205:87|170:115,1,105,2|0,0:0|0:0,0:0:0:0:
154,61,17956,2,0,B|187:33|187:33|301:41,1,140,2|0,0:0|0:0,0:0:0:0:
380,124,18865,1,0,0:0:0:0:
321,158,19168,1,0,0:0:0:0:
313,156,19471,1,0,0:0:0:0:
246,255,19774,5,2,0:0:0:0:
227,314,20077,1,0,0:0:0:0:
184,268,20380,1,0,0:0:0:0:
263,196,20684,2,0,L|346:193,1,70,2|0,0:0|0:0,0:0:0:0:
200,122,21290,2,0,P|266:133|318:89,1,140,2|2,0:0|0:0,0:0:0:0:
237,23,22199,6,0,P|214:48|221:81,1,70,0|0,3:0|0:0,0:0:0:0:
280,66,22653,2,0,P|269:33|237:23,1,70,0|0,3:0|0:0,0:0:0:0:
221,81,23108,2,0,P|255:88|280:66,1,70,0|0,3:0|0:0,0:0:0:0:
180,131,23714,1,0,0:0:0:0:
183,142,24017,1,0,0:0:0:0:
167,80,24320,1,0,0:0:0:0:
123,191,24623,5,2,0:0:0:0:
65,164,24926,1,0,0:0:0:0:
116,126,25229,1,0,0:0:0:0:
169,218,25532,2,0,P|143:240|108:243,1,70,2|0,0:0|0:0,0:0:0:0:
218,250,26138,2,0,P|166:295|98:300,1,140,2|2,0:0|0:0,0:0:0:0:
54,178,27047,6,0,L|122:190,1,70,0|0,3:0|0:0,0:0:0:0:
100,126,27502,2,0,L|54:179,1,70,0|0,3:0|0:0,0:0:0:0:
124,191,27956,2,0,L|98:120,1,70,0|0,3:0|0:0,0:0:0:0:
126,76,28562,1,0,0:0:0:0:
180,92,28865,2,0,L|205:158,1,70
331,199,29471,5,2,0:0:0:0:
389,172,29774,1,0,0:0:0:0:
338,134,30077,1,0,0:0:0:0:
281,221,30380,2,0,P|301:248|335:254,1,70,2|0,0:0|0:0,0:0:0:0:
237,174,30987,2,0,P|260:238|229:299,1,140,2|2,0:0|0:0,0:0:0:0:
144,232,31896,6,0,P|165:205|199:204,1,70,0|0,3:0|2:0,2:0:0:0:
195,265,32350,2,0,P|161:260|143:231,1,70,0|0,3:0|2:0,2:0:0:0:
198,203,32805,2,0,P|210:234|195:264,1,70,0|0,3:0|2:0,2:0:0:0:
201,135,33411,1,0,0:0:0:0:
256,100,33714,1,0,0:0:0:0:
311,135,34017,1,2,0:0:0:0:
256,196,34320,5,0,0:0:0:0:
252,203,34623,1,0,0:0:0:0:
307,201,34926,1,0,0:0:0:0:
311,193,35229,1,0,0:0:0:0:
397,295,35532,5,2,0:0:0:0:
293,332,35835,1,2,0:0:0:0:
355,242,36138,1,2,0:0:0:0:
357,350,36441,1,2,0:0:0:0:
292,264,36744,6,0,P|279:238|285:272,1,105,2|0,0:0|0:0,0:0:0:0:
204,269,37350,2,0,P|223:205|288:185,1,140,2|0,0:0|0:0,0:0:0:0:
349,204,38259,1,0,0:0:0:0:
331,144,38562,1,0,0:0:0:0:
287,184,38865,1,0,0:0:0:0:
458,125,39168,6,0,P|467:91|458:58,1,70,2|0,0:0|0:0,0:0:0:0:
403,91,39774,1,0,0:0:0:0:
349,204,40077,2,0,P|339:237|348:270,1,70,2|0,0:0|0:0,0:0:0:0:
404,238,40683,1,0,0:0:0:0:
355,139,40987,1,0,0:0:0:0:
342,142,41290,1,0,0:0:0:0:
215,59,41593,6,0,L|280:87,1,70,2|0,0:0|0:0,0:0:0:0:
270,23,42199,1,0,0:0:0:0:
247,148,42502,2,0,L|182:120,1,70,2|0,0:0|0:0,0:0:0:0:
192,184,43108,1,0,0:0:0:0:
301,222,43411,1,0,0:0:0:0:
314,219,43714,1,0,0:0:0:0:
225,322,44017,6,0,P|192:332|159:321,1,70,2|0,0:0|0:0,0:0:0:0:
193,276,44623,1,0,0:0:0:0:
72,196,44926,2,0,P|104:185|137:196,1,70,2|0,0:0|0:0,0:0:0:0:
104,242,45532,1,0,0:0:0:0:
44,140,45835,1,0,0:0:0:0:
47,127,46138,1,0,0:0:0:0:
194,103,46441,6,0,B|206:91|206:91|213:38,1,70,2|0,0:0|0:0,0:0:0:0:
154,60,47047,1,0,0:0:0:0:
298,38,47350,2,0,B|305:91|305:91|318:103,1,70,2|0,0:0|0:0,0:0:0:0:
357,59,47956,1,0,0:0:0:0:
375,116,48259,1,0,0:0:0:0:
317,102,48562,1,0,0:0:0:0:
424,83,48865,6,0,P|435:117|425:149,1,70,2|0,0:0|0:0,0:0:0:0:
375,116,49471,1,0,0:0:0:0:
308,225,49774,2,0,P|297:191|307:159,1,70,2|0,0:0|0:0,0:0:0:0:
357,192,50380,1,0,0:0:0:0:
397,300,50684,1,0,0:0:0:0:
394,312,50987,1,0,0:0:0:0:
260,277,51290,6,0,B|205:282|205:282|189:297,1,70,2|0,0:0|0:0,0:0:0:0:
234,342,51896,1,0,0:0:0:0:
122,261,52199,2,0,B|67:255|67:255|51:240,1,70,2|0,0:0|0:0,0:0:0:0:
96,196,52805,1,0,0:0:0:0:
212,230,53108,1,0,0:0:0:0:
224,229,53411,1,0,0:0:0:0:
182,101,53714,6,0,L|200:31,1,70,2|0,0:0|0:0,0:0:0:0:
142,52,54320,1,0,0:0:0:0:
242,79,54623,1,2,0:0:0:0:
182,206,54926,5,2,0:0:0:0:
122,117,55229,1,2,0:0:0:0:
225,153,55532,1,2,0:0:0:0:
119,184,55846,1,2,0:0:0:0:
186,98,56152,5,2,0:0:0:0:
185,86,56478,1,0,0:0:0:0:
122,117,56804,1,2,0:0:0:0:
121,129,57130,1,2,0:0:0:0:
151,230,57478,5,0,0:0:0:0:
197,267,57827,5,0,0:0:0:0:
204,325,58184,5,0,0:0:0:0:
257,224,58584,6,0,P|260:213|257:198,1,17.5
256,192,58792,2,0,B|262:155|199:180|215:180|160:227|254:306|325:259|346:191|299:103|214:134,1,315,2|0,0:0|0:0,0:0:0:0:
