osu file format v14

[General]
AudioFilename: audio.mp3
AudioLeadIn: 0
PreviewTime: 78
Countdown: 0
SampleSet: Soft
StackLeniency: 0.4
Mode: 0
LetterboxInBreaks: 0
EpilepsyWarning: 1
WidescreenStoryboard: 1

[Editor]
Bookmarks: 19774,39168,48865
DistanceSpacing: 0.9
BeatDivisor: 4
GridSize: 4
TimelineZoom: 1

[Metadata]
Title:Dreams of an Absolution
TitleUnicode:Dreams of an Absolution
Artist:R3 Music Box
ArtistUnicode:R3 Music Box
Creator:Joe Castle
Version:Collab Hard
Source:SONIC THE HEDGEHOG
Tags:Bentley Jones Lee Brotherton 2006 Silver's Theme SEGA Wave Master A_r_M_i_N armin Voli HootOwlStar RyoKazuka Megapcmx
BeatmapID:1488919
BeatmapSetID:696381

[Difficulty]
HPDrainRate:5
CircleSize:4
OverallDifficulty:5
ApproachRate:6.5
SliderMultiplier:1.6
SliderTickRate:1

[Events]
//Background and Video events
0,0,"bg.jpg",0,0
//Break Periods
//Storyboard Layer 0 (Background)
//Storyboard Layer 1 (Fail)
//Storyboard Layer 2 (Pass)
//Storyboard Layer 3 (Foreground)
Sprite,Foreground,Centre,"sb\highlight.png",72,432 C,0,78,,192,192,192 F,2,78,1478,1,0 S,2,78,1478,0.6,0.12 P,0,78,1478,A
Sprite,Foreground,Centre,"sb\highlight.png",0,0 C,0,381,,0,210,210 M,0,381,456,156,388,153.4625,368.1616 F,2,381,2084,1,0 S,2,381,2084,0.6,0.12 P,0,381,2084,A M,0,456,532,153.4625,368.1616,150.9251,348.3232 M,0,532,608,150.9251,348.3232,148.3876,328.4849 M,0,608,684,148.3876,328.4849,145.8501,308.6465
Sprite,Foreground,Centre,"sb\highlight.png",228,260 C,0,987,,0,210,210 F,2,987,2387,1,0 S,2,987,2387,0.6,0.12 P,0,987,2387,A
Sprite,Foreground,Centre,"sb\highlight.png",0,0 C,0,1290,,0,210,210 M,0,1290,1365,312,308,328.3663,319.3435 F,2,1290,3296,1,0 S,2,1290,3296,0.6,0.12 P,0,1290,3296,A M,0,1365,1441,328.3663,319.3435,346.8531,326.6598 M,0,1441,1517,346.8531,326.6598,366.4915,329.7273 M,0,1517,1593,366.4915,329.7273,386.2822,327.7616 M,0,1593,1668,386.2822,327.7616,405.1895,321.5785 M,0,1668,1744,405.1895,321.5785,421.8879,310.7607 M,0,1744,1820,421.8879,310.7607,435.9446,296.6561 M,0,1820,1896,435.9446,296.6561,445.8371,279.3818
Sprite,Foreground,Centre,"sb\highlight.png",468,188 C,0,2199,,0,210,210 F,2,2199,3599,1,0 S,2,2199,3599,0.6,0.12 P,0,2199,3599,A
Sprite,Foreground,Centre,"sb\highlight.png",388,68 C,0,2502,,0,210,210 F,2,2502,3902,1,0 S,2,2502,3902,0.6,0.12 P,0,2502,3902,A
Sprite,Foreground,Centre,"sb\highlight.png",0,0 C,0,2805,,255,157,157 M,0,2805,2880,300,104,298.2468,123.923 F,2,2805,5114,1,0 S,2,2805,5114,0.6,0.12 P,0,2805,5114,A M,0,2880,2956,298.2468,123.923,296.4935,143.846 M,0,2956,3032,296.4935,143.846,294.7403,163.769 M,0,3032,3108,294.7403,163.769,292.9871,183.692 M,0,3108,3183,292.9871,183.692,291.2339,203.615 M,0,3183,3259,291.2339,203.615,289.4807,223.538 M,0,3259,3335,289.4807,223.538,291.2339,203.615 M,0,3335,3411,291.2339,203.615,292.9871,183.692 M,0,3411,3486,292.9871,183.692,294.7403,163.769 M,0,3486,3562,294.7403,163.769,296.4935,143.846 M,0,3562,3638,296.4935,143.846,298.2468,123.923 M,0,3638,3714,298.2468,123.923,300,104
Sprite,Foreground,Centre,"sb\highlight.png",204,123 C,0,4017,,255,157,157 F,2,4017,5417,1,0 S,2,4017,5417,0.6,0.12 P,0,4017,5417,A
Sprite,Foreground,Centre,"sb\highlight.png",0,0 C,0,4320,,255,157,157 M,0,4320,4395,110,144,101.7567,125.8195 F,2,4320,6023,1,0 S,2,4320,6023,0.6,0.12 P,0,4320,6023,A M,0,4395,4471,101.7567,125.8195,96.38734,106.6082 M,0,4471,4547,96.38734,106.6082,93.8206,86.82057 M,0,4547,4623,93.8206,86.82057,94.55902,66.86333
Sprite,Foreground,Centre,"sb\highlight.png",175,214 C,0,4926,,255,157,157 F,2,4926,6326,1,0 S,2,4926,6326,0.6,0.12 P,0,4926,6326,A
Sprite,Foreground,Centre,"sb\highlight.png",107,282 C,0,5229,,151,47,255 F,2,5229,6629,1,0 S,2,5229,6629,0.6,0.12 P,0,5229,6629,A
Sprite,Foreground,Centre,"sb\highlight.png",0,0 C,0,5532,,151,47,255 M,0,5532,5607,130,375,149.9594,373.726 F,2,5532,7235,1,0 S,2,5532,7235,0.6,0.12 P,0,5532,7235,A M,0,5607,5683,149.9594,373.726,169.9188,372.452 M,0,5683,5759,169.9188,372.452,189.8781,371.178 M,0,5759,5835,189.8781,371.178,209.8375,369.904
Sprite,Foreground,Centre,"sb\highlight.png",0,0 C,0,6138,,151,47,255 M,0,6138,6213,298,408,317.7378,411.1796 F,2,6138,8144,1,0 S,2,6138,8144,0.6,0.12 P,0,6138,8144,A M,0,6213,6289,317.7378,411.1796,337.704,411.9575 M,0,6289,6365,337.704,411.9575,357.4829,409.2207 M,0,6365,6441,357.4829,409.2207,376.5514,403.2233 M,0,6441,6516,376.5514,403.2233,395.6306,397.2608 M,0,6516,6592,395.6306,397.2608,415.4077,394.495 M,0,6592,6668,415.4077,394.495,435.3813,395.0954 M,0,6668,6744,435.3813,395.0954,455,398
Sprite,Foreground,Centre,"sb\highlight.png",548,423 C,0,7047,,151,47,255 F,2,7047,8447,1,0 S,2,7047,8447,0.6,0.12 P,0,7047,8447,A
Sprite,Foreground,Centre,"sb\highlight.png",450,301 C,0,7350,,151,47,255 F,2,7350,8750,1,0 S,2,7350,8750,0.6,0.12 P,0,7350,8750,A
Sprite,Foreground,Centre,"sb\highlight.png",0,0 C,0,7653,,192,192,192 M,0,7653,7728,540,266,547.2313,247.3731 F,2,7653,9962,1,0 S,2,7653,9962,0.6,0.12 P,0,7653,9962,A M,0,7728,7804,547.2313,247.3731,552.418,228.0842 M,0,7804,7880,552.418,228.0842,555.6439,208.3688 M,0,7880,7956,555.6439,208.3688,556.4436,188.4066 M,0,7956,8031,556.4436,188.4066,555.0946,168.4796 M,0,8031,8107,555.0946,168.4796,551.7016,148.7968 M,0,8107,8183,551.7016,148.7968,555.0946,168.4796 M,0,8183,8259,555.0946,168.4796,556.4436,188.4066 M,0,8259,8334,556.4436,188.4066,555.6439,208.3688 M,0,8334,8410,555.6439,208.3688,552.418,228.0842 M,0,8410,8486,552.418,228.0842,547.2313,247.3731 M,0,8486,8562,547.2313,247.3731,540,266
Sprite,Foreground,Centre,"sb\highlight.png",450,301 C,0,8865,,192,192,192 F,2,8865,10265,1,0 S,2,8865,10265,0.6,0.12 P,0,8865,10265,A
Sprite,Foreground,Centre,"sb\highlight.png",0,0 C,0,9168,,192,192,192 M,0,9168,9243,356,269,349.2309,250.2007 F,2,9168,10871,1,0 S,2,9168,10871,0.6,0.12 P,0,9168,10871,A M,0,9243,9319,349.2309,250.2007,344.6458,230.7611 M,0,9319,9395,344.6458,230.7611,342.3023,210.9313 M,0,9395,9471,342.3023,210.9313,342,191
Sprite,Foreground,Centre,"sb\highlight.png",454,67 C,0,9774,,192,192,192 F,2,9774,11174,1,0 S,2,9774,11174,0.6,0.12 P,0,9774,11174,A
Sprite,Foreground,Centre,"sb\highlight.png",434,162 C,0,10077,,0,210,210 F,2,10077,11477,1,0 S,2,10077,11477,0.6,0.12 P,0,10077,11477,A
Sprite,Foreground,Centre,"sb\highlight.png",0,0 C,0,10381,,0,210,210 M,0,10381,10456,362,98,344.8258,87.80447 F,2,10381,12084,1,0 S,2,10381,12084,0.6,0.12 P,0,10381,12084,A M,0,10456,10532,344.8258,87.80447,326.4425,80.02571 M,0,10532,10608,326.4425,80.02571,307.1839,74.80262 M,0,10608,10684,307.1839,74.80262,288,72
Sprite,Foreground,Centre,"sb\highlight.png",0,0 C,0,10987,,0,210,210 M,0,10987,11062,207,124,208.392,143.9515 F,2,10987,12993,1,0 S,2,10987,12993,0.6,0.12 P,0,10987,12993,A M,0,11062,11138,208.392,143.9515,209.7839,163.903 M,0,11138,11214,209.7839,163.903,211.1759,183.8545 M,0,11214,11290,211.1759,183.8545,212.5679,203.806 M,0,11290,11365,212.5679,203.806,213.9598,223.7575 M,0,11365,11441,213.9598,223.7575,215.3518,243.709 M,0,11441,11517,215.3518,243.709,216.7438,263.6605 M,0,11517,11593,216.7438,263.6605,218.1357,283.612
Sprite,Foreground,Centre,"sb\highlight.png",305,324 C,0,11896,,0,210,210 F,2,11896,13296,1,0 S,2,11896,13296,0.6,0.12 P,0,11896,13296,A
Sprite,Foreground,Centre,"sb\highlight.png",139,338 C,0,12199,,0,210,210 F,2,12199,13599,1,0 S,2,12199,13599,0.6,0.12 P,0,12199,13599,A
Sprite,Foreground,Centre,"sb\highlight.png",0,0 C,0,12502,,255,157,157 M,0,12502,12577,226,379,239.6355,393.5495 F,2,12502,14811,1,0 S,2,12502,14811,0.6,0.12 P,0,12502,14811,A M,0,12577,12653,239.6355,393.5495,255.7555,405.2502 M,0,12653,12729,255.7555,405.2502,273.7398,413.8045 M,0,12729,12805,273.7398,413.8045,293.1221,418.415 M,0,12805,12880,293.1221,418.415,313.0197,419.4838 M,0,12880,12956,313.0197,419.4838,332.6913,416.2929 M,0,12956,13032,332.6913,416.2929,313.0197,419.4838 M,0,13032,13108,313.0197,419.4838,293.1221,418.415 M,0,13108,13183,293.1221,418.415,273.7398,413.8045 M,0,13183,13259,273.7398,413.8045,255.7555,405.2502 M,0,13259,13335,255.7555,405.2502,239.6355,393.5495 M,0,13335,13411,239.6355,393.5495,226,379
Sprite,Foreground,Centre,"sb\highlight.png",305,324 C,0,13714,,255,157,157 F,2,13714,15114,1,0 S,2,13714,15114,0.6,0.12 P,0,13714,15114,A
Sprite,Foreground,Centre,"sb\highlight.png",0,0 C,0,14017,,255,157,157 M,0,14017,14092,218,283,198.1349,280.6977 F,2,14017,15720,1,0 S,2,14017,15720,0.6,0.12 P,0,14017,15720,A M,0,14092,14168,198.1349,280.6977,178.2037,279.0715 M,0,14168,14244,178.2037,279.0715,158.2305,278.0811 M,0,14244,14320,158.2305,278.0811,138.2339,277.8591
Sprite,Foreground,Centre,"sb\highlight.png",0,0 C,0,14623,,151,47,255 M,0,14623,14698,297,228,314.7311,236.9906 F,2,14623,17235,1,0 S,2,14623,17235,0.6,0.12 P,0,14623,17235,A M,0,14698,14774,314.7311,236.9906,334.1723,240.9354 M,0,14774,14850,334.1723,240.9354,353.9642,239.7298 M,0,14850,14926,353.9642,239.7298,372.548,232.7676 M,0,14926,15001,372.548,232.7676,388.7691,221.3288 M,0,15001,15077,388.7691,221.3288,400.8434,205.5667 M,0,15077,15153,400.8434,205.5667,408.6413,187.2866 M,0,15153,15229,408.6413,187.2866,410.5261,167.5086 M,0,15229,15304,410.5261,167.5086,407.0905,147.976 M,0,15304,15380,407.0905,147.976,398.655,130.0459 M,0,15380,15456,398.655,130.0459,385.3849,115.2993 M,0,15456,15532,385.3849,115.2993,368.7723,104.4693 M,0,15532,15607,368.7723,104.4693,349.6955,98.9961 M,0,15607,15683,349.6955,98.9961,329.8497,98.51256 M,0,15683,15759,329.8497,98.51256,310.7622,103.986 M,0,15759,15835,310.7622,103.986,293.5743,113.9907
Sprite,Foreground,Centre,"sb\highlight.png",217,173 C,0,16138,,151,47,255 F,2,16138,17538,1,0 S,2,16138,17538,0.6,0.12 P,0,16138,17538,A
Sprite,Foreground,Centre,"sb\highlight.png",136,120 C,0,16441,,151,47,255 F,2,16441,17841,1,0 S,2,16441,17841,0.6,0.12 P,0,16441,17841,A
Sprite,Foreground,Centre,"sb\highlight.png",0,0 C,0,16744,,151,47,255 M,0,16744,16819,64,184,68.09433,203.5704 F,2,16744,18447,1,0 S,2,16744,18447,0.6,0.12 P,0,16744,18447,A M,0,16819,16895,68.09433,203.5704,70.94408,223.3579 M,0,16895,16971,70.94408,223.3579,72.53818,243.2843 M,0,16971,17047,72.53818,243.2843,73,263
Sprite,Foreground,Centre,"sb\highlight.png",0,0 C,0,17350,,192,192,192 M,0,17350,17425,146,391,146.458,371.0111 F,2,17350,19053,1,0 S,2,17350,19053,0.6,0.12 P,0,17350,19053,A M,0,17425,17501,146.458,371.0111,148.0904,351.0856 M,0,17501,17577,148.0904,351.0856,150.8783,331.2897 M,0,17577,17653,150.8783,331.2897,154.8432,311.6914
Sprite,Foreground,Centre,"sb\highlight.png",0,0 C,0,17956,,192,192,192 M,0,17956,18031,244,348,263.4333,343.273 F,2,17956,19962,1,0 S,2,17956,19962,0.6,0.12 P,0,17956,19962,A M,0,18031,18107,263.4333,343.273,282.8667,338.5459 M,0,18107,18183,282.8667,338.5459,302.3,333.8189 M,0,18183,18259,302.3,333.8189,321.7797,329.3107 M,0,18259,18334,321.7797,329.3107,341.7016,327.9937 M,0,18334,18410,341.7016,327.9937,361.4026,331.1424 M,0,18410,18486,361.4026,331.1424,379.7381,339.0037 M,0,18486,18562,379.7381,339.0037,395.8175,350.8349
Sprite,Foreground,Centre,"sb\highlight.png",336,426 C,0,18865,,192,192,192 F,2,18865,20265,1,0 S,2,18865,20265,0.6,0.12 P,0,18865,20265,A
Sprite,Foreground,Centre,"sb\highlight.png",396,351 C,0,19168,,192,192,192 F,2,19168,20568,1,0 S,2,19168,20568,0.6,0.12 P,0,19168,20568,A
Sprite,Foreground,Centre,"sb\highlight.png",540,368 C,0,19471,,192,192,192 F,2,19471,20871,1,0 S,2,19471,20871,0.6,0.12 P,0,19471,20871,A
Sprite,Foreground,Centre,"sb\highlight.png",0,0 C,0,19774,,0,210,210 M,0,19774,19849,560,275,560.4684,255.0242 F,2,19774,21477,1,0 S,2,19774,21477,0.6,0.12 P,0,19774,21477,A M,0,19849,19925,560.4684,255.0242,558.7039,235.1287 M,0,19925,20001,558.7039,235.1287,554.7292,215.5595 M,0,20001,20077,554.7292,215.5595,549,197
Sprite,Foreground,Centre,"sb\highlight.png",472,144 C,0,20381,,0,210,210 F,2,20381,21781,1,0 S,2,20381,21781,0.6,0.12 P,0,20381,21781,A
Sprite,Foreground,Centre,"sb\highlight.png",0,0 C,0,20684,,0,210,210 M,0,20684,20759,424,228,405.6786,235.8477 F,2,20684,22690,1,0 S,2,20684,22690,0.6,0.12 P,0,20684,22690,A M,0,20759,20835,405.6786,235.8477,386.1733,239.8254 M,0,20835,20911,386.1733,239.8254,366.2717,239.8988 M,0,20911,20987,366.2717,239.8988,346.8466,235.5258 M,0,20987,21062,346.8466,235.5258,328.6232,227.4985 M,0,21062,21138,328.6232,227.4985,312.6959,215.5398 M,0,21138,21214,312.6959,215.5398,299.2997,200.7872 M,0,21214,21290,299.2997,200.7872,289.4961,183.4115
Sprite,Foreground,Centre,"sb\highlight.png",268,88 C,0,21593,,0,210,210 F,2,21593,22993,1,0 S,2,21593,22993,0.6,0.12 P,0,21593,22993,A
Sprite,Foreground,Centre,"sb\highlight.png",148,164 C,0,21896,,0,210,210 F,2,21896,23296,1,0 S,2,21896,23296,0.6,0.12 P,0,21896,23296,A
Sprite,Foreground,Centre,"sb\highlight.png",0,0 C,0,22199,,255,157,157 M,0,22199,22274,188,252,168.1644,249.4406 F,2,22199,24508,1,0 S,2,22199,24508,0.6,0.12 P,0,22199,24508,A M,0,22274,22350,168.1644,249.4406,148.3289,246.8811 M,0,22350,22426,148.3289,246.8811,128.4933,244.3217 M,0,22426,22502,128.4933,244.3217,108.6578,241.7623 M,0,22502,22577,108.6578,241.7623,88.82221,239.2029 M,0,22577,22653,88.82221,239.2029,68.98666,236.6434 M,0,22653,22729,68.98666,236.6434,88.82221,239.2029 M,0,22729,22805,88.82221,239.2029,108.6578,241.7623 M,0,22805,22880,108.6578,241.7623,128.4933,244.3217 M,0,22880,22956,128.4933,244.3217,148.3289,246.8811 M,0,22956,23032,148.3289,246.8811,168.1644,249.4406 M,0,23032,23108,168.1644,249.4406,188,252
Sprite,Foreground,Centre,"sb\highlight.png",256,184 C,0,23411,,255,157,157 F,2,23411,24811,1,0 S,2,23411,24811,0.6,0.12 P,0,23411,24811,A
Sprite,Foreground,Centre,"sb\highlight.png",0,0 C,0,23714,,255,157,157 M,0,23714,23789,288,276,285.5193,295.8456 F,2,23714,25417,1,0 S,2,23714,25417,0.6,0.12 P,0,23714,25417,A M,0,23789,23865,285.5193,295.8456,283.0386,315.6911 M,0,23865,23941,283.0386,315.6911,280.5579,335.5367 M,0,23941,24017,280.5579,335.5367,278.0772,355.3822
Sprite,Foreground,Centre,"sb\highlight.png",400,432 C,0,24320,,255,157,157 F,2,24320,25720,1,0 S,2,24320,25720,0.6,0.12 P,0,24320,25720,A
Sprite,Foreground,Centre,"sb\highlight.png",480,380 C,0,24623,,151,47,255 F,2,24623,26023,1,0 S,2,24623,26023,0.6,0.12 P,0,24623,26023,A
Sprite,Foreground,Centre,"sb\highlight.png",0,0 C,0,24926,,151,47,255 M,0,24926,25001,571,400,570.8126,380.0343 F,2,24926,26629,1,0 S,2,24926,26629,0.6,0.12 P,0,24926,26629,A M,0,25001,25077,570.8126,380.0343,567.7921,360.3099 M,0,25077,25153,567.7921,360.3099,562.1199,341.1783 M,0,25153,25229,562.1199,341.1783,553.4828,323.1858
Sprite,Foreground,Centre,"sb\highlight.png",0,0 C,0,25532,,151,47,255 M,0,25532,25607,480,264,460.0945,265.942 F,2,25532,27538,1,0 S,2,25532,27538,0.6,0.12 P,0,25532,27538,A M,0,25607,25683,460.0945,265.942,440.189,267.884 M,0,25683,25759,440.189,267.884,420.2835,269.826 M,0,25759,25835,420.2835,269.826,400.378,271.768 M,0,25835,25910,400.378,271.768,380.4725,273.71 M,0,25910,25986,380.4725,273.71,360.567,275.652 M,0,25986,26062,360.567,275.652,340.6616,277.594 M,0,26062,26138,340.6616,277.594,320.756,279.536
Sprite,Foreground,Centre,"sb\highlight.png",268,360 C,0,26441,,151,47,255 F,2,26441,27841,1,0 S,2,26441,27841,0.6,0.12 P,0,26441,27841,A
Sprite,Foreground,Centre,"sb\highlight.png",168,256 C,0,26744,,151,47,255 F,2,26744,28144,1,0 S,2,26744,28144,0.6,0.12 P,0,26744,28144,A
Sprite,Foreground,Centre,"sb\highlight.png",0,0 C,0,27047,,192,192,192 M,0,27047,27122,88,308,91.28798,327.7279 F,2,27047,29356,1,0 S,2,27047,29356,0.6,0.12 P,0,27047,29356,A M,0,27122,27198,91.28798,327.7279,94.57596,347.4557 M,0,27198,27274,94.57596,347.4557,97.86394,367.1836 M,0,27274,27350,97.86394,367.1836,101.1519,386.9115 M,0,27350,27425,101.1519,386.9115,104.4399,406.6394 M,0,27425,27501,104.4399,406.6394,107.7279,426.3673 M,0,27501,27577,107.7279,426.3673,104.4399,406.6394 M,0,27577,27653,104.4399,406.6394,101.1519,386.9115 M,0,27653,27728,101.1519,386.9115,97.86394,367.1836 M,0,27728,27804,97.86394,367.1836,94.57596,347.4557 M,0,27804,27880,94.57596,347.4557,91.28798,327.7279 M,0,27880,27956,91.28798,327.7279,88,308
Sprite,Foreground,Centre,"sb\highlight.png",168,256 C,0,28259,,192,192,192 F,2,28259,29659,1,0 S,2,28259,29659,0.6,0.12 P,0,28259,29659,A
Sprite,Foreground,Centre,"sb\highlight.png",0,0 C,0,28562,,192,192,192 M,0,28562,28637,212,340,231.799,337.1716 F,2,28562,30265,1,0 S,2,28562,30265,0.6,0.12 P,0,28562,30265,A M,0,28637,28713,231.799,337.1716,251.598,334.3431 M,0,28713,28789,251.598,334.3431,271.397,331.5147 M,0,28789,28865,271.397,331.5147,291.196,328.6863
Sprite,Foreground,Centre,"sb\highlight.png",416,396 C,0,29168,,192,192,192 F,2,29168,30568,1,0 S,2,29168,30568,0.6,0.12 P,0,29168,30568,A
Sprite,Foreground,Centre,"sb\highlight.png",444,304 C,0,29471,,0,210,210 F,2,29471,30871,1,0 S,2,29471,30871,0.6,0.12 P,0,29471,30871,A
Sprite,Foreground,Centre,"sb\highlight.png",0,0 C,0,29774,,0,210,210 M,0,29774,29849,464,212,460.0777,192.3884 F,2,29774,31477,1,0 S,2,29774,31477,0.6,0.12 P,0,29774,31477,A M,0,29849,29925,460.0777,192.3884,456.1554,172.7768 M,0,29925,30001,456.1554,172.7768,452.233,153.1652 M,0,30001,30077,452.233,153.1652,448.3107,133.5535
Sprite,Foreground,Centre,"sb\highlight.png",0,0 C,0,30380,,0,210,210 M,0,30380,30455,336,92,316.7897,86.48023 F,2,30380,32386,1,0 S,2,30380,32386,0.6,0.12 P,0,30380,32386,A M,0,30455,30531,316.7897,86.48023,296.9792,83.95657 M,0,30531,30607,296.9792,83.95657,277.102,85.70425 M,0,30607,30683,277.102,85.70425,257.9252,91.3275 M,0,30683,30758,257.9252,91.3275,238.8739,97.3876 M,0,30758,30834,238.8739,97.3876,219.0988,100.0652 M,0,30834,30910,219.0988,100.0652,199.2097,98.31793 M,0,30910,30986,199.2097,98.31793,179.8644,93.30417
Sprite,Foreground,Centre,"sb\highlight.png",88,60 C,0,31290,,0,210,210 F,2,31290,32690,1,0 S,2,31290,32690,0.6,0.12 P,0,31290,32690,A
Sprite,Foreground,Centre,"sb\highlight.png",68,204 C,0,31593,,0,210,210 F,2,31593,32993,1,0 S,2,31593,32993,0.6,0.12 P,0,31593,32993,A
Sprite,Foreground,Centre,"sb\highlight.png",0,0 C,0,31896,,255,157,157 M,0,31896,31971,144,264,163.8547,261.5934 F,2,31896,34205,1,0 S,2,31896,34205,0.6,0.12 P,0,31896,34205,A M,0,31971,32047,163.8547,261.5934,183.7094,259.1868 M,0,32047,32123,183.7094,259.1868,203.564,256.7801 M,0,32123,32199,203.564,256.7801,223.4187,254.3735 M,0,32199,32274,223.4187,254.3735,243.2734,251.9669 M,0,32274,32350,243.2734,251.9669,263.1281,249.5602 M,0,32350,32426,263.1281,249.5602,243.2734,251.9669 M,0,32426,32502,243.2734,251.9669,223.4187,254.3735 M,0,32502,32577,223.4187,254.3735,203.564,256.7801 M,0,32577,32653,203.564,256.7801,183.7094,259.1868 M,0,32653,32729,183.7094,259.1868,163.8547,261.5934 M,0,32729,32805,163.8547,261.5934,144,264
Sprite,Foreground,Centre,"sb\highlight.png",68,204 C,0,33108,,255,157,157 F,2,33108,34508,1,0 S,2,33108,34508,0.6,0.12 P,0,33108,34508,A
Sprite,Foreground,Centre,"sb\highlight.png",0,0 C,0,33411,,255,157,157 M,0,33411,33486,156,164,157.4975,144.0838 F,2,33411,35417,1,0 S,2,33411,35417,0.6,0.12 P,0,33411,35417,A M,0,33486,33562,157.4975,144.0838,156.3447,124.1557 M,0,33562,33638,156.3447,124.1557,152.5638,104.5616 M,0,33638,33714,152.5638,104.5616,146.3854,85.57652 M,0,33714,33789,146.3854,85.57652,152.5638,104.5616 M,0,33789,33865,152.5638,104.5616,156.3447,124.1557 M,0,33865,33941,156.3447,124.1557,157.4975,144.0838 M,0,33941,34017,157.4975,144.0838,156,164
Sprite,Foreground,Centre,"sb\highlight.png",0,0 C,0,34320,,151,47,255 M,0,34320,34395,72,280,90.91879,273.6603 F,2,34320,36326,1,0 S,2,34320,36326,0.6,0.12 P,0,34320,36326,A M,0,34395,34471,90.91879,273.6603,110.6177,270.5966 M,0,34471,34547,110.6177,270.5966,130.5503,270.7755 M,0,34547,34623,130.5503,270.7755,150.1057,274.6699 M,0,34623,34698,150.1057,274.6699,168.7984,281.6205 M,0,34698,34774,168.7984,281.6205,185.8281,292.0017 M,0,34774,34850,185.8281,292.0017,201.0518,304.9038 M,0,34850,34926,201.0518,304.9038,213.5988,320.4364
Sprite,Foreground,Centre,"sb\highlight.png",216,416 C,0,35229,,151,47,255 F,2,35229,36629,1,0 S,2,35229,36629,0.6,0.12 P,0,35229,36629,A
Sprite,Foreground,Centre,"sb\highlight.png",0,0 C,0,35532,,151,47,255 M,0,35532,35607,300,368,319.7042,364.5732 F,2,35532,37235,1,0 S,2,35532,37235,0.6,0.12 P,0,35532,37235,A M,0,35607,35683,319.7042,364.5732,339.4085,361.1464 M,0,35683,35759,339.4085,361.1464,359.1127,357.7195 M,0,35759,35835,359.1127,357.7195,378.817,354.2927
Sprite,Foreground,Centre,"sb\highlight.png",0,0 C,0,36138,,151,47,255 M,0,36138,36213,536,428,517.4491,420.5684 F,2,36138,37841,1,0 S,2,36138,37841,0.6,0.12 P,0,36138,37841,A M,0,36213,36289,517.4491,420.5684,499.7671,411.2703 M,0,36289,36365,499.7671,411.2703,483.1393,400.2044 M,0,36365,36441,483.1393,400.2044,468,388
Sprite,Foreground,Centre,"sb\highlight.png",0,0 C,0,36744,,192,192,192 M,0,36744,36819,475,216,472.4545,235.8165 F,2,36744,38447,1,0 S,2,36744,38447,0.6,0.12 P,0,36744,38447,A M,0,36819,36895,472.4545,235.8165,467.7395,255.2246 M,0,36895,36971,467.7395,255.2246,460.9169,273.9913 M,0,36971,37047,460.9169,273.9913,452.0538,291.9019
Sprite,Foreground,Centre,"sb\highlight.png",0,0 C,0,37350,,192,192,192 M,0,37350,37425,378,354,358.0644,352.396 F,2,37350,39356,1,0 S,2,37350,39356,0.6,0.12 P,0,37350,39356,A M,0,37425,37501,358.0644,352.396,338.1288,350.792 M,0,37501,37577,338.1288,350.792,318.1933,349.188 M,0,37577,37653,318.1933,349.188,298.2577,347.584 M,0,37653,37728,298.2577,347.584,278.3221,345.9799 M,0,37728,37804,278.3221,345.9799,258.3865,344.3759 M,0,37804,37880,258.3865,344.3759,238.451,342.7719 M,0,37880,37956,238.451,342.7719,218.5154,341.1679
Sprite,Foreground,Centre,"sb\highlight.png",156,268 C,0,38259,,192,192,192 F,2,38259,39659,1,0 S,2,38259,39659,0.6,0.12 P,0,38259,39659,A
Sprite,Foreground,Centre,"sb\highlight.png",0,0 C,0,38562,,192,192,192 M,0,38562,38637,120,356,119.6362,375.9816 F,2,38562,40265,1,0 S,2,38562,40265,0.6,0.12 P,0,38562,40265,A M,0,38637,38713,119.6362,375.9816,121.2718,395.8932 M,0,38713,38789,121.2718,395.8932,124.8897,415.5378 M,0,38789,38865,124.8897,415.5378,130,434
Sprite,Foreground,Centre,"sb\highlight.png",0,0 C,0,39168,,0,210,210 M,0,39168,39243,245,297,250.0795,277.6676 F,2,39168,40871,1,0 S,2,39168,40871,0.6,0.12 P,0,39168,40871,A M,0,39243,39319,250.0795,277.6676,253.487,257.9763 M,0,39319,39395,253.487,257.9763,255.1986,238.0682 M,0,39395,39471,255.1986,238.0682,255.3163,218.083
Sprite,Foreground,Centre,"sb\highlight.png",196,142 C,0,39774,,0,210,210 F,2,39774,41174,1,0 S,2,39774,41174,0.6,0.12 P,0,39774,41174,A
Sprite,Foreground,Centre,"sb\highlight.png",0,0 C,0,40077,,0,210,210 M,0,40077,40152,265,75,284.994,74.51234 F,2,40077,42083,1,0 S,2,40077,42083,0.6,0.12 P,0,40077,42083,A M,0,40152,40228,284.994,74.51234,304.9881,74.02468 M,0,40228,40304,304.9881,74.02468,324.9822,73.53702 M,0,40304,40380,324.9822,73.53702,344.9762,73.04936 M,0,40380,40455,344.9762,73.04936,364.9703,72.5617 M,0,40455,40531,364.9703,72.5617,384.9643,72.07404 M,0,40531,40607,384.9643,72.07404,404.9584,71.58638 M,0,40607,40683,404.9584,71.58638,424.9525,71.09872
Sprite,Foreground,Centre,"sb\highlight.png",0,0 C,0,40987,,0,210,210 M,0,40987,41062,500,129,510.4484,112.038 F,2,40987,42690,1,0 S,2,40987,42690,0.6,0.12 P,0,40987,42690,A M,0,41062,41138,510.4484,112.038,516.8117,93.19327 M,0,41138,41214,516.8117,93.19327,518.7784,73.41943 M,0,41214,41290,518.7784,73.41943,517,55
Sprite,Foreground,Centre,"sb\highlight.png",0,0 C,0,41593,,255,157,157 M,0,41593,41668,415,170,412.9485,189.8126 F,2,41593,43599,1,0 S,2,41593,43599,0.6,0.12 P,0,41593,43599,A M,0,41668,41744,412.9485,189.8126,415.2826,209.5656 M,0,41744,41820,415.2826,209.5656,421.8177,228.3393 M,0,41820,41896,421.8177,228.3393,432.4117,245.2259 M,0,41896,41971,432.4117,245.2259,421.8177,228.3393 M,0,41971,42047,421.8177,228.3393,415.2826,209.5656 M,0,42047,42123,415.2826,209.5656,412.9485,189.8126 M,0,42123,42199,412.9485,189.8126,415,170
Sprite,Foreground,Centre,"sb\highlight.png",0,0 C,0,42502,,255,157,157 M,0,42502,42577,510,302,492.0242,293.3848 F,2,42502,44508,1,0 S,2,42502,44508,0.6,0.12 P,0,42502,44508,A M,0,42577,42653,492.0242,293.3848,472.7241,288.4875 M,0,42653,42729,472.7241,288.4875,452.8509,287.4774 M,0,42729,42805,452.8509,287.4774,433.2083,290.7414 M,0,42805,42880,433.2083,290.7414,414.5978,297.7875 M,0,42880,42956,414.5978,297.7875,397.9182,308.6638 M,0,42956,43032,397.9182,308.6638,383.6961,322.5833 M,0,43032,43108,383.6961,322.5833,372.7867,339.2417
Sprite,Foreground,Centre,"sb\highlight.png",0,0 C,0,43411,,255,157,157 M,0,43411,43486,398,432,416.83,425.5026 F,2,43411,45114,1,0 S,2,43411,45114,0.6,0.12 P,0,43411,45114,A M,0,43486,43562,416.83,425.5026,433.6229,414.8496 M,0,43562,43638,433.6229,414.8496,447.4856,400.6208 M,0,43638,43714,447.4856,400.6208,458,384
Sprite,Foreground,Centre,"sb\highlight.png",0,0 C,0,44017,,151,47,255 M,0,44017,44092,306,406,286.0707,404.3192 F,2,44017,46023,1,0 S,2,44017,46023,0.6,0.12 P,0,44017,46023,A M,0,44092,44168,286.0707,404.3192,266.1415,402.6384 M,0,44168,44244,266.1415,402.6384,246.2122,400.9577 M,0,44244,44320,246.2122,400.9577,226.283,399.2769 M,0,44320,44395,226.283,399.2769,206.3538,397.5961 M,0,44395,44471,206.3538,397.5961,186.4245,395.9153 M,0,44471,44547,186.4245,395.9153,166.4952,394.2345 M,0,44547,44623,166.4952,394.2345,146.566,392.5538
Sprite,Foreground,Centre,"sb\highlight.png",0,0 C,0,44926,,151,47,255 M,0,44926,45001,87,317,85.11591,297.132 F,2,44926,46932,1,0 S,2,44926,46932,0.6,0.12 P,0,44926,46932,A M,0,45001,45077,85.11591,297.132,86.44787,277.235 M,0,45077,45153,86.44787,277.235,90.82484,257.7796 M,0,45153,45229,90.82484,257.7796,98.61982,239.4196 M,0,45229,45304,98.61982,239.4196,109.0726,222.422 M,0,45304,45380,109.0726,222.422,122.4698,207.6361 M,0,45380,45456,122.4698,207.6361,138.0586,195.2034 M,0,45456,45532,138.0586,195.2034,155.3978,185.3643
Sprite,Foreground,Centre,"sb\highlight.png",0,0 C,0,45835,,151,47,255 M,0,45835,45910,210,105,190.2268,101.9965 F,2,45835,47538,1,0 S,2,45835,47538,0.6,0.12 P,0,45835,47538,A M,0,45910,45986,190.2268,101.9965,170.4536,98.99296 M,0,45986,46062,170.4536,98.99296,150.6805,95.98943 M,0,46062,46138,150.6805,95.98943,131,93
Sprite,Foreground,Centre,"sb\highlight.png",0,0 C,0,46441,,192,192,192 M,0,46441,46516,251,191,270.9466,190.6319 F,2,46441,48144,1,0 S,2,46441,48144,0.6,0.12 P,0,46441,48144,A M,0,46516,46592,270.9466,190.6319,290.4998,186.7712 M,0,46592,46668,290.4998,186.7712,309.1737,179.7716 M,0,46668,46744,309.1737,179.7716,326.0737,169.1823
Sprite,Foreground,Centre,"sb\highlight.png",408,117 C,0,47047,,192,192,192 F,2,47047,48447,1,0 S,2,47047,48447,0.6,0.12 P,0,47047,48447,A
Sprite,Foreground,Centre,"sb\highlight.png",0,0 C,0,47350,,192,192,192 M,0,47350,47425,482,178,484.3368,197.863 F,2,47350,49053,1,0 S,2,47350,49053,0.6,0.12 P,0,47350,49053,A M,0,47425,47501,484.3368,197.863,486.6736,217.726 M,0,47501,47577,486.6736,217.726,489.0105,237.589 M,0,47577,47653,489.0105,237.589,491.3473,257.4521
Sprite,Foreground,Centre,"sb\highlight.png",479,352 C,0,47956,,192,192,192 F,2,47956,49356,1,0 S,2,47956,49356,0.6,0.12 P,0,47956,49356,A
Sprite,Foreground,Centre,"sb\highlight.png",568,315 C,0,48259,,192,192,192 F,2,48259,49659,1,0 S,2,48259,49659,0.6,0.12 P,0,48259,49659,A
Sprite,Foreground,Centre,"sb\highlight.png",568,315 C,0,48562,,192,192,192 F,2,48562,49962,1,0 S,2,48562,49962,0.6,0.12 P,0,48562,49962,A
Sprite,Foreground,Centre,"sb\highlight.png",0,0 C,0,48865,,0,210,210 M,0,48865,48940,403,294,383.1063,291.9639 F,2,48865,50568,1,0 S,2,48865,50568,0.6,0.12 P,0,48865,50568,A M,0,48940,49016,383.1063,291.9639,363.307,289.1618 M,0,49016,49092,363.307,289.1618,343.6213,285.6466 M,0,49092,49168,343.6213,285.6466,324.1081,281.2736
Sprite,Foreground,Centre,"sb\highlight.png",276,200 C,0,49471,,0,210,210 F,2,49471,50871,1,0 S,2,49471,50871,0.6,0.12 P,0,49471,50871,A
Sprite,Foreground,Centre,"sb\highlight.png",0,0 C,0,49774,,0,210,210 M,0,49774,49849,192,248,174.9983,258.3967 F,2,49774,51780,1,0 S,2,49774,51780,0.6,0.12 P,0,49774,51780,A M,0,49849,49925,174.9983,258.3967,160.5379,272.0713 M,0,49925,50001,160.5379,272.0713,149.0715,288.3399 M,0,50001,50077,149.0715,288.3399,141.6717,306.8244 M,0,50077,50152,141.6717,306.8244,137.9567,326.4005 M,0,50152,50228,137.9567,326.4005,138.9875,346.2959 M,0,50228,50304,138.9875,346.2959,144.1113,365.5242 M,0,50304,50380,144.1113,365.5242,152.8953,383.3992
Sprite,Foreground,Centre,"sb\highlight.png",0,0 C,0,50684,,0,210,210 M,0,50684,50759,236,432,255.8136,429.2756 F,2,50684,52387,1,0 S,2,50684,52387,0.6,0.12 P,0,50684,52387,A M,0,50759,50835,255.8136,429.2756,275.6271,426.5513 M,0,50835,50911,275.6271,426.5513,295.4407,423.8269 M,0,50911,50987,295.4407,423.8269,315.2543,421.1025
Sprite,Foreground,Centre,"sb\highlight.png",0,0 C,0,51290,,255,157,157 M,0,51290,51365,153,383,133.1834,380.2977 F,2,51290,53296,1,0 S,2,51290,53296,0.6,0.12 P,0,51290,53296,A M,0,51365,51441,133.1834,380.2977,113.3668,377.5955 M,0,51441,51517,113.3668,377.5955,93.55019,374.8932 M,0,51517,51593,93.55019,374.8932,73.73359,372.1909 M,0,51593,51668,73.73359,372.1909,93.55019,374.8932 M,0,51668,51744,93.55019,374.8932,113.3668,377.5955 M,0,51744,51820,113.3668,377.5955,133.1834,380.2977 M,0,51820,51896,133.1834,380.2977,153,383
Sprite,Foreground,Centre,"sb\highlight.png",0,0 C,0,52199,,255,157,157 M,0,52199,52274,236,432,244.0615,413.7713 F,2,52199,54205,1,0 S,2,52199,54205,0.6,0.12 P,0,52199,54205,A M,0,52274,52350,244.0615,413.7713,248.2998,394.3192 M,0,52350,52426,248.2998,394.3192,248.6016,374.4239 M,0,52426,52502,248.6016,374.4239,244.5411,354.9325 M,0,52502,52577,244.5411,354.9325,236.7344,336.6267 M,0,52577,52653,236.7344,336.6267,225.0796,320.4826 M,0,52653,52729,225.0796,320.4826,210.5076,306.9233 M,0,52729,52805,210.5076,306.9233,193.3925,296.6792
Sprite,Foreground,Centre,"sb\highlight.png",0,0 C,0,53108,,255,157,157 M,0,53108,53183,108,252,111.5123,232.3165 F,2,53108,54811,1,0 S,2,53108,54811,0.6,0.12 P,0,53108,54811,A M,0,53183,53259,111.5123,232.3165,116.2159,212.8857 M,0,53259,53335,116.2159,212.8857,122.0933,193.7785 M,0,53335,53411,122.0933,193.7785,129.0272,175.026
Sprite,Foreground,Centre,"sb\highlight.png",0,0 C,0,53714,,151,47,255 M,0,53714,53789,212,88,221.5485,105.4894 F,2,53714,55720,1,0 S,2,53714,55720,0.6,0.12 P,0,53714,55720,A M,0,53789,53865,221.5485,105.4894,234.5465,120.5566 M,0,53865,53941,234.5465,120.5566,250.3129,132.6988 M,0,53941,54017,250.3129,132.6988,268.4958,140.8038 M,0,54017,54092,268.4958,140.8038,287.9261,145.2051 M,0,54092,54168,287.9261,145.2051,307.8412,144.7993 M,0,54168,54244,307.8412,144.7993,327.2019,140.2157 M,0,54244,54320,327.2019,140.2157,345.2127,131.7735
Sprite,Foreground,Centre,"sb\highlight.png",412,64 C,0,54623,,151,47,255 F,2,54623,56023,1,0 S,2,54623,56023,0.6,0.12 P,0,54623,56023,A
Sprite,Foreground,Centre,"sb\highlight.png",0,0 C,0,54926,,151,47,255 M,0,54926,55001,492,116,488.0777,135.6116 F,2,54926,56629,1,0 S,2,54926,56629,0.6,0.12 P,0,54926,56629,A M,0,55001,55077,488.0777,135.6116,484.1554,155.2232 M,0,55077,55153,484.1554,155.2232,480.233,174.8348 M,0,55153,55229,480.233,174.8348,476.3107,194.4465
Sprite,Foreground,Centre,"sb\highlight.png",456,288 C,0,55532,,151,47,255 F,2,55532,56932,1,0 S,2,55532,56932,0.6,0.12 P,0,55532,56932,A
Sprite,Foreground,Centre,"sb\highlight.png",380,224 C,0,55846,,151,47,255 F,2,55846,57246,1,0 S,2,55846,57246,0.6,0.12 P,0,55846,57246,A
Sprite,Foreground,Centre,"sb\highlight.png",0,0 C,0,56152,,192,192,192 M,0,56152,56233,252,276,241.2625,292.8732 F,2,56152,58204,1,0 S,2,56152,58204,0.6,0.12 P,0,56152,58204,A M,0,56233,56315,241.2625,292.8732,230.525,309.7465 M,0,56315,56396,230.525,309.7465,224.1772,327.8437 M,0,56396,56478,224.1772,327.8437,226.2081,347.7296 M,0,56478,56559,226.2081,347.7296,230.4146,367.2722 M,0,56559,56641,230.4146,367.2722,236.6084,386.2804 M,0,56641,56722,236.6084,386.2804,244.5546,404.6269 M,0,56722,56804,244.5546,404.6269,254.0049,422.2474
Sprite,Foreground,Centre,"sb\highlight.png",0,0 C,0,57130,,192,192,192 M,0,57130,57217,344,392,362.6969,384.9564 F,2,57130,59227,1,0 S,2,57130,59227,0.6,0.12 P,0,57130,59227,A M,0,57217,57304,362.6969,384.9564,382.392,381.8123 M,0,57304,57391,382.392,381.8123,402.1252,384.5088 M,0,57391,57478,402.1252,384.5088,420.6973,391.883 M,0,57478,57566,420.6973,391.883,439.3135,399.1387 M,0,57566,57653,439.3135,399.1387,459.0715,401.6894 M,0,57653,57740,459.0715,401.6894,478.7817,398.6057 M,0,57740,57827,478.7817,398.6057,497,392
Sprite,Foreground,Centre,"sb\highlight.png",576,336 C,0,58184,,192,192,192 F,2,58184,59584,1,0 S,2,58184,59584,0.6,0.12 P,0,58184,59584,A
Sprite,Foreground,Centre,"sb\highlight.png",0,0 C,0,58584,,0,210,210 M,0,58584,58688,492,300,486.4,280.8 F,2,58584,60192,1,0 S,2,58584,60192,0.6,0.12 P,0,58584,60192,A M,0,58688,58792,486.4,280.8,492,300
//Storyboard Sound Samples

[TimingPoints]
78,606.060606060606,4,2,1,25,1,0
381,606.060606060606,4,2,1,25,1,0
15077,-100,4,2,1,5,0,0
15380,-100,4,2,1,25,0,0
55540,612.244897959184,4,2,1,25,1,0
56152,652.173913043478,4,2,1,25,1,0
57130,697.674418604651,4,2,1,25,1,0
57827,714.285714285714,4,2,1,5,1,0
58184,800,4,2,1,25,1,0
58584,833.333333333333,4,2,1,25,1,0

[Colours]
Combo1 : 151,47,255
Combo2 : 192,192,192
Combo3 : 0,210,210
Combo4 : 255,157,157

[HitObjects]
8,376,78,5,0,0:0:0:0:
92,332,381,6,0,L|81:246,1,80,2|0,0:0|0:0,0:0:0:0:
164,204,987,1,0,0:0:0:0:
248,252,1290,2,0,P|336:268|388:204,1,160,2|2,0:0|0:0,0:0:0:0:
404,132,2199,1,0,0:0:0:0:
324,12,2502,1,0,0:0:0:0:
236,48,2805,6,0,L|225:173,2,120,2|0|2,0:0|0:0|0:0,0:0:0:0:
140,67,4017,1,0,0:0:0:0:
46,88,4320,2,0,P|32:50|31:7,1,80
111,158,4926,1,0,0:0:0:0:
43,226,5229,5,2,0:0:0:0:
66,319,5532,2,0,L|160:313,1,80
234,352,6138,2,0,B|316:369|308:326|391:342,1,160,2|2,0:0|0:0,0:0:0:0:
484,367,7047,1,0,0:0:0:0:
386,245,7350,1,0,0:0:0:0:
476,210,7653,6,0,P|492:149|478:63,2,120,2|0|2,0:0|0:0|0:0,0:0:0:0:
386,245,8865,1,0,0:0:0:0:
292,213,9168,2,0,P|280:172|278:135,1,80
390,11,9774,1,0,0:0:0:0:
370,106,10077,5,2,0:0:0:0:
298,42,10381,2,0,P|263:24|224:16,1,80
143,68,10987,2,0,L|155:240,1,160,2|2,0:0|0:0,0:0:0:0:
241,268,11896,1,0,0:0:0:0:
75,282,12199,1,0,0:0:0:0:
162,323,12502,6,0,P|220:361|287:354,2,120,2|0|2,0:0|0:0|0:0,0:0:0:0:
241,268,13714,1,0,0:0:0:0:
154,227,14017,2,0,P|114:223|62:222,1,80
233,172,14623,6,0,P|330:160|224:63,1,320,2|0,0:0|0:0,0:0:0:0:
153,117,16138,1,2,0:0:0:0:
72,64,16441,1,0,0:0:0:0:
0,128,16744,2,0,P|7:167|9:207,1,80
82,335,17350,6,0,P|84:295|91:255,1,80,2|0,0:0|0:0,0:0:0:0:
180,292,17956,2,0,B|254:274|254:274|299:265|332:295,1,160,2|0,0:0|0:0,0:0:0:0:
272,370,18865,1,0,0:0:0:0:
332,295,19168,1,0,0:0:0:0:
476,312,19471,1,0,0:0:0:0:
496,219,19774,6,0,P|495:180|485:141,1,80,2|0,0:0|0:0,0:0:0:0:
408,88,20381,1,0,0:0:0:0:
360,172,20684,2,0,P|267:173|224:124,1,160,2|2,0:0|0:0,0:0:0:0:
204,32,21593,1,0,0:0:0:0:
84,108,21896,1,0,0:0:0:0:
124,196,22199,6,0,L|0:180,2,120,2|0|2,0:0|0:0|0:0,0:0:0:0:
192,128,23411,1,0,0:0:0:0:
224,220,23714,2,0,L|212:316,1,80
336,376,24320,1,0,0:0:0:0:
416,324,24623,5,2,0:0:0:0:
507,344,24926,2,0,P|503:300|479:251,1,80
416,208,25532,2,0,L|252:224,1,160,2|2,0:0|0:0,0:0:0:0:
204,304,26441,1,0,0:0:0:0:
104,200,26744,1,0,0:0:0:0:
24,252,27047,6,0,L|44:372,2,120,2|0|2,0:0|0:0|0:0,0:0:0:0:
104,200,28259,1,0,0:0:0:0:
148,284,28562,2,0,L|232:272,1,80
352,340,29168,1,0,0:0:0:0:
380,248,29471,5,2,0:0:0:0:
400,156,29774,2,0,L|384:76,1,80
272,36,30380,2,0,B|192:8|192:64|112:36,1,160,2|2,0:0|0:0,0:0:0:0:
24,4,31290,1,0,0:0:0:0:
4,148,31593,1,0,0:0:0:0:
80,208,31896,6,0,L|212:192,2,120,2|0|2,0:0|0:0|0:0,0:0:0:0:
4,148,33108,1,0,0:0:0:0:
92,108,33411,2,0,P|92:64|80:24,2,80
8,224,34320,6,0,P|76:216|152:268,1,160,2|0,0:0|0:0,0:0:0:0:
152,360,35229,1,0,0:0:0:0:
236,312,35532,2,0,L|328:296,1,80,2|0,0:0|0:0,0:0:0:0:
472,372,36138,2,0,P|435:355|404:332,1,80
411,160,36744,6,0,P|404:199|388:236,1,80,2|0,0:0|0:0,0:0:0:0:
314,298,37350,2,0,L|140:284,1,160,2|0,0:0|0:0,0:0:0:0:
92,212,38259,1,0,0:0:0:0:
56,300,38562,2,0,P|57:339|66:378,1,80
181,241,39168,6,0,P|190:199|191:156,1,80,2|0,0:0|0:0,0:0:0:0:
132,86,39774,1,0,0:0:0:0:
201,19,40077,2,0,L|365:15,1,160,2|0,0:0|0:0,0:0:0:0:
436,73,40987,2,0,P|453:38|453:-1,1,80
351,114,41593,6,0,P|351:154|369:190,2,80,2|0|0,0:0|0:0|0:0,0:0:0:0:
446,246,42502,2,0,P|361:237|300:306,1,160,2|0,0:0|0:0,0:0:0:0:
334,376,43411,2,0,P|370:359|394:328,1,80
242,350,44017,6,0,L|76:336,1,160,2|0,0:0|0:0,0:0:0:0:
23,261,44926,2,0,P|26:204|112:122,1,160,2|0,0:0|0:0,0:0:0:0:
146,49,45835,2,0,L|67:37,1,80
187,135,46441,6,0,P|233:129|278:99,1,80,2|0,0:0|0:0,0:0:0:0:
344,61,47047,1,0,0:0:0:0:
418,122,47350,2,0,L|428:207,1,80,2|0,0:0|0:0,0:0:0:0:
415,296,47956,1,0,0:0:0:0:
504,259,48259,1,0,0:0:0:0:
504,259,48562,1,0,0:0:0:0:
339,238,48865,6,0,P|292:232|240:220,1,80,2|0,0:0|0:0,0:0:0:0:
212,144,49471,1,0,0:0:0:0:
128,192,49774,2,0,P|76:256|92:332,1,160,2|0,0:0|0:0,0:0:0:0:
172,376,50684,2,0,L|252:365,1,80
89,327,51290,6,0,L|1:315,2,80,2|0|0,0:0|0:0|0:0,0:0:0:0:
172,376,52199,2,0,P|184:312|128:240,1,160,2|0,0:0|0:0,0:0:0:0:
44,196,53108,2,0,P|60:132|68:112,1,80
148,32,53714,6,0,P|192:80|304:56,1,160,2|0,0:0|0:0,0:0:0:0:
348,8,54623,1,2,0:0:0:0:
428,60,54926,2,0,L|412:140,1,80
392,232,55532,1,0,0:0:0:0:
316,168,55846,1,0,0:0:0:0:
188,220,56152,6,0,B|160:264|160:264|160:320|196:376,1,160,2|0,0:0|0:0,0:0:0:0:
280,336,57130,2,0,B|356:301|356:370|433:336,1,160,2|0,0:0|0:0,0:0:0:0:
512,280,58184,1,0,0:0:0:0:
428,244,58584,6,0,L|421:220,2,20,0|0|2,0:0|0:0|0:0,0:0:0:0:
