osu file format v14

[General]
AudioFilename: audio.mp3
AudioLeadIn: 0
PreviewTime: 78
Countdown: 0
SampleSet: Soft
StackLeniency: 0.3
Mode: 0
LetterboxInBreaks: 0
EpilepsyWarning: 1
WidescreenStoryboard: 1

[Editor]
DistanceSpacing: 0.9
BeatDivisor: 4
GridSize: 4
TimelineZoom: 1

[Metadata]
Title:Dreams of an Absolution
TitleUnicode:Dreams of an Absolution
Artist:R3 Music Box
ArtistUnicode:R3 Music Box
Creator:Joe Castle
Version:Normal
Source:SONIC THE HEDGEHOG
Tags:Bentley Jones Lee Brotherton 2006 Silver's Theme SEGA Wave Master A_r_M_i_N armin Voli HootOwlStar RyoKazuka Megapcmx
BeatmapID:1475149
BeatmapSetID:696381

[Difficulty]
HPDrainRate:4
CircleSize:3.5
OverallDifficulty:4
ApproachRate:5
SliderMultiplier:1.4
SliderTickRate:1

[Events]
//Background and Video events
0,0,"bg.jpg",0,0
//Break Periods
//Storyboard Layer 0 (Background)
//Storyboard Layer 1 (Fail)
//Storyboard Layer 2 (Pass)
//Storyboard Layer 3 (Foreground)
Sprite,Foreground,Centre,"sb/highlight.png",116,240 S,2,78,1478,0.6,0.12 F,2,78,1478,1,0 P,0,78,1478,A C,0,78,,192,192,192
Sprite,Foreground,Centre,"sb/highlight.png",0,0 S,2,381,2387,0.6,0.12 F,2,381,2387,1,0 P,0,381,2387,A C,0,381,,0,210,210 M,0,381,456,120,156,113.354,139.8111 M,0,456,532,113.354,139.8111,106.708,123.6222 M,0,532,608,106.708,123.6222,100.0621,107.4333 M,0,608,684,100.0621,107.4333,93.41609,91.24433 M,0,684,759,93.41609,91.24433,100.0621,107.4333 M,0,759,835,100.0621,107.4333,106.708,123.6222 M,0,835,911,106.708,123.6222,113.354,139.8111 M,0,911,987,113.354,139.8111,120,156
Sprite,Foreground,Centre,"sb/highlight.png",0,0 S,2,1290,3296,0.6,0.12 F,2,1290,3296,1,0 P,0,1290,3296,A C,0,1290,,0,210,210 M,0,1290,1365,192,200,207.545,192.0315 M,0,1365,1441,207.545,192.0315,224.1636,186.69 M,0,1441,1517,224.1636,186.69,241.4185,184.1126 M,0,1517,1593,241.4185,184.1126,258.8561,184.3645 M,0,1593,1668,258.8561,184.3645,276.0188,187.4375 M,0,1668,1744,276.0188,187.4375,292.5467,193.0365 M,0,1744,1820,292.5467,193.0365,307.7943,201.544 M,0,1820,1896,307.7943,201.544,321.454,212.4024
Sprite,Foreground,Centre,"sb/highlight.png",440,332 S,2,2502,3902,0.6,0.12 F,2,2502,3902,1,0 P,0,2502,3902,A C,0,2502,,0,210,210
Sprite,Foreground,Centre,"sb/highlight.png",0,0 S,2,2805,5114,0.6,0.12 F,2,2805,5114,1,0 P,0,2805,5114,A C,0,2805,,255,157,157 M,0,2805,2880,508,284,505.3784,266.6975 M,0,2880,2956,505.3784,266.6975,502.7568,249.395 M,0,2956,3032,502.7568,249.395,500.1352,232.0924 M,0,3032,3108,500.1352,232.0924,497.5136,214.7899 M,0,3108,3183,497.5136,214.7899,494.892,197.4874 M,0,3183,3259,494.892,197.4874,492.2704,180.1849 M,0,3259,3335,492.2704,180.1849,494.892,197.4874 M,0,3335,3411,494.892,197.4874,497.5136,214.7899 M,0,3411,3486,497.5136,214.7899,500.1352,232.0924 M,0,3486,3562,500.1352,232.0924,502.7568,249.395 M,0,3562,3638,502.7568,249.395,505.3784,266.6975 M,0,3638,3714,505.3784,266.6975,508,284
Sprite,Foreground,Centre,"sb/highlight.png",0,0 S,2,4320,6023,0.6,0.12 F,2,4320,6023,1,0 P,0,4320,6023,A C,0,4320,,255,157,157 M,0,4320,4395,352,344,349.4041,326.6936 M,0,4395,4471,349.4041,326.6936,346.8081,309.3872 M,0,4471,4547,346.8081,309.3872,344.2121,292.0808 M,0,4547,4623,344.2121,292.0808,341.6162,274.7745
Sprite,Foreground,Centre,"sb/highlight.png",348,192 S,2,4926,6326,0.6,0.12 F,2,4926,6326,1,0 P,0,4926,6326,A C,0,4926,,255,157,157
Sprite,Foreground,Centre,"sb/highlight.png",0,0 S,2,5229,7235,0.6,0.12 F,2,5229,7235,1,0 P,0,5229,7235,A C,0,5229,,151,47,255 M,0,5229,5304,396,124,406.6427,110.1685 M,0,5304,5380,406.6427,110.1685,419.9167,98.86395 M,0,5380,5456,419.9167,98.86395,435.239,90.57463 M,0,5456,5532,435.239,90.57463,451.9391,85.65749 M,0,5532,5607,451.9391,85.65749,435.239,90.57463 M,0,5607,5683,435.239,90.57463,419.9167,98.86395 M,0,5683,5759,419.9167,98.86395,406.6427,110.1685 M,0,5759,5835,406.6427,110.1685,396,124
Sprite,Foreground,Centre,"sb/highlight.png",0,0 S,2,6138,8144,0.6,0.12 F,2,6138,8144,1,0 P,0,6138,8144,A C,0,6138,,151,47,255 M,0,6138,6213,312,116,296.0368,108.873 M,0,6213,6289,296.0368,108.873,279.3182,103.7876 M,0,6289,6365,279.3182,103.7876,262.1025,100.8206 M,0,6365,6441,262.1025,100.8206,244.6557,100.0169 M,0,6441,6516,244.6557,100.0169,227.2472,101.3881 M,0,6516,6592,227.2472,101.3881,210.0845,104.6884 M,0,6592,6668,210.0845,104.6884,193.5592,110.3915 M,0,6668,6744,193.5592,110.3915,177.8771,118.1014
Sprite,Foreground,Centre,"sb/highlight.png",64,240 S,2,7350,8750,0.6,0.12 F,2,7350,8750,1,0 P,0,7350,8750,A C,0,7350,,151,47,255
Sprite,Foreground,Centre,"sb/highlight.png",0,0 S,2,7653,9962,0.6,0.12 F,2,7653,9962,1,0 P,0,7653,9962,A C,0,7653,,192,192,192 M,0,7653,7728,112,308,109.3138,325.2926 M,0,7728,7804,109.3138,325.2926,106.6275,342.5852 M,0,7804,7880,106.6275,342.5852,103.9413,359.8778 M,0,7880,7956,103.9413,359.8778,101.2551,377.1704 M,0,7956,8031,101.2551,377.1704,98.56885,394.463 M,0,8031,8107,98.56885,394.463,96,411 M,0,8107,8183,96,411,98.56885,394.463 M,0,8183,8259,98.56885,394.463,101.2551,377.1704 M,0,8259,8334,101.2551,377.1704,103.9413,359.8778 M,0,8334,8410,103.9413,359.8778,106.6275,342.5852 M,0,8410,8486,106.6275,342.5852,109.3138,325.2926 M,0,8486,8562,109.3138,325.2926,112,308
Sprite,Foreground,Centre,"sb/highlight.png",0,0 S,2,9168,10871,0.6,0.12 F,2,9168,10871,1,0 P,0,9168,10871,A C,0,9168,,192,192,192 M,0,9168,9243,252,216,255.8546,233.0702 M,0,9243,9319,255.8546,233.0702,259.7091,250.1404 M,0,9319,9395,259.7091,250.1404,263.5637,267.2107 M,0,9395,9471,263.5637,267.2107,267.4183,284.2809
Sprite,Foreground,Centre,"sb/highlight.png",329,342 S,2,9774,11174,0.6,0.12 F,2,9774,11174,1,0 P,0,9774,11174,A C,0,9774,,192,192,192
Sprite,Foreground,Centre,"sb/highlight.png",0,0 S,2,10077,12083,0.6,0.12 F,2,10077,12083,1,0 P,0,10077,12083,A C,0,10077,,0,210,210 M,0,10077,10152,412,344,429.3975,342.109 M,0,10152,10228,429.3975,342.109,446.795,340.2179 M,0,10228,10304,446.795,340.2179,464.1926,338.3269 M,0,10304,10380,464.1926,338.3269,481.5901,336.4359 M,0,10380,10455,481.5901,336.4359,464.1926,338.3269 M,0,10455,10531,464.1926,338.3269,446.795,340.2179 M,0,10531,10607,446.795,340.2179,429.3975,342.109 M,0,10607,10683,429.3975,342.109,412,344
Sprite,Foreground,Centre,"sb/highlight.png",0,0 S,2,10987,12993,0.6,0.12 F,2,10987,12993,1,0 P,0,10987,12993,A C,0,10987,,0,210,210 M,0,10987,11062,368,272,362.0321,255.5672 M,0,11062,11138,362.0321,255.5672,358.1938,238.5167 M,0,11138,11214,358.1938,238.5167,356.5455,221.1224 M,0,11214,11290,356.5455,221.1224,357.1125,203.6637 M,0,11290,11365,357.1125,203.6637,359.8847,186.4208 M,0,11365,11441,359.8847,186.4208,364.817,169.6702 M,0,11441,11517,364.817,169.6702,371.8296,153.6808 M,0,11517,11593,371.8296,153.6808,380.6223,138.5786
Sprite,Foreground,Centre,"sb/highlight.png",224,80 S,2,12199,13599,0.6,0.12 F,2,12199,13599,1,0 P,0,12199,13599,A C,0,12199,,0,210,210
Sprite,Foreground,Centre,"sb/highlight.png",0,0 S,2,12502,14811,0.6,0.12 F,2,12502,14811,1,0 P,0,12502,14811,A C,0,12502,,255,157,157 M,0,12502,12577,168,144,150.7823,140.8695 M,0,12577,12653,150.7823,140.8695,133.5645,137.739 M,0,12653,12729,133.5645,137.739,116.3468,134.6085 M,0,12729,12805,116.3468,134.6085,99.1291,131.478 M,0,12805,12880,99.1291,131.478,81.91138,128.3475 M,0,12880,12956,81.91138,128.3475,64.69366,125.217 M,0,12956,13032,64.69366,125.217,81.91138,128.3475 M,0,13032,13108,81.91138,128.3475,99.1291,131.478 M,0,13108,13183,99.1291,131.478,116.3468,134.6085 M,0,13183,13259,116.3468,134.6085,133.5645,137.739 M,0,13259,13335,133.5645,137.739,150.7823,140.8695 M,0,13335,13411,150.7823,140.8695,168,144
Sprite,Foreground,Centre,"sb/highlight.png",0,0 S,2,14016,15719,0.6,0.12 F,2,14016,15719,1,0 P,0,14016,15719,A C,0,14016,,255,157,157 M,0,14016,14091,336,140,332.7139,157.1887 M,0,14091,14167,332.7139,157.1887,329.4279,174.3774 M,0,14167,14243,329.4279,174.3774,326.1418,191.5661 M,0,14243,14319,326.1418,191.5661,323,208
Sprite,Foreground,Centre,"sb/highlight.png",347,289 S,2,14623,16023,0.6,0.12 F,2,14623,16023,1,0 P,0,14623,16023,A C,0,14623,,255,157,157
Sprite,Foreground,Centre,"sb/highlight.png",0,0 S,2,14926,16629,0.6,0.12 F,2,14926,16629,1,0 P,0,14926,16629,A C,0,14926,,151,47,255 M,0,14926,15001,316,368,299.2726,362.9844 M,0,15001,15077,299.2726,362.9844,281.9244,361.1035 M,0,15077,15153,281.9244,361.1035,264.5351,362.416 M,0,15153,15229,264.5351,362.416,247.6141,366.7005
Sprite,Foreground,Centre,"sb/highlight.png",0,0 S,2,15532,17235,0.6,0.12 F,2,15532,17235,1,0 P,0,15532,17235,A C,0,15532,,151,47,255 M,0,15532,15607,208,292,193.3077,301.4155 M,0,15607,15683,193.3077,301.4155,180.9324,313.6932 M,0,15683,15759,180.9324,313.6932,171.4195,328.2832 M,0,15759,15835,171.4195,328.2832,164.9673,344.4852
Sprite,Foreground,Centre,"sb/highlight.png",0,0 S,2,16138,17841,0.6,0.12 F,2,16138,17841,1,0 P,0,16138,17841,A C,0,16138,,151,47,255 M,0,16138,16213,92,388,85.59294,371.739 M,0,16213,16289,85.59294,371.739,82.0771,354.619 M,0,16289,16365,82.0771,354.619,81.55698,337.1502 M,0,16365,16441,81.55698,337.1502,84,320
Sprite,Foreground,Centre,"sb/highlight.png",108,240 S,2,16744,18144,0.6,0.12 F,2,16744,18144,1,0 P,0,16744,18144,A C,0,16744,,151,47,255
Sprite,Foreground,Centre,"sb/highlight.png",164,176 S,2,17047,18447,0.6,0.12 F,2,17047,18447,1,0 P,0,17047,18447,A C,0,17047,,151,47,255
Sprite,Foreground,Centre,"sb/highlight.png",0,0 S,2,17350,19356,0.6,0.12 F,2,17350,19356,1,0 P,0,17350,19356,A C,0,17350,,192,192,192 M,0,17350,17425,192,256,208.4734,261.9056 M,0,17425,17501,208.4734,261.9056,224.9469,267.8112 M,0,17501,17577,224.9469,267.8112,241.4203,273.7167 M,0,17577,17653,241.4203,273.7167,257.8938,279.6223 M,0,17653,17728,257.8938,279.6223,274.3672,285.5279 M,0,17728,17804,274.3672,285.5279,290.8406,291.4334 M,0,17804,17880,290.8406,291.4334,307.3141,297.339 M,0,17880,17956,307.3141,297.339,323.7875,303.2446
Sprite,Foreground,Centre,"sb/highlight.png",0,0 S,2,18562,20568,0.6,0.12 F,2,18562,20568,1,0 P,0,18562,20568,A C,0,18562,,192,192,192 M,0,18562,18637,484,360,487.4798,377.1505 M,0,18637,18713,487.4798,377.1505,490.9596,394.3011 M,0,18713,18789,490.9596,394.3011,494.4395,411.4516 M,0,18789,18865,494.4395,411.4516,497.9193,428.6021 M,0,18865,18940,497.9193,428.6021,494.4395,411.4516 M,0,18940,19016,494.4395,411.4516,490.9596,394.3011 M,0,19016,19092,490.9596,394.3011,487.4798,377.1505 M,0,19092,19168,487.4798,377.1505,484,360
Sprite,Foreground,Centre,"sb/highlight.png",456,280 S,2,19471,20871,0.6,0.12 F,2,19471,20871,1,0 P,0,19471,20871,A C,0,19471,,192,192,192
Sprite,Foreground,Centre,"sb/highlight.png",0,0 S,2,19774,21780,0.6,0.12 F,2,19774,21780,1,0 P,0,19774,21780,A C,0,19774,,0,210,210 M,0,19774,19849,478,199,474.2037,181.9167 M,0,19849,19925,474.2037,181.9167,470.4074,164.8335 M,0,19925,20001,470.4074,164.8335,466.6111,147.7502 M,0,20001,20077,466.6111,147.7502,462.8149,130.6669 M,0,20077,20152,462.8149,130.6669,466.6111,147.7502 M,0,20152,20228,466.6111,147.7502,470.4074,164.8335 M,0,20228,20304,470.4074,164.8335,474.2037,181.9167 M,0,20304,20380,474.2037,181.9167,478,199
Sprite,Foreground,Centre,"sb/highlight.png",0,0 S,2,20684,22690,0.6,0.12 F,2,20684,22690,1,0 P,0,20684,22690,A C,0,20684,,0,210,210 M,0,20684,20759,394,213,376.969,209.1004 M,0,20759,20835,376.969,209.1004,359.5428,207.9859 M,0,20835,20911,359.5428,207.9859,342.1721,209.6825 M,0,20911,20987,342.1721,209.6825,325.3059,214.1441 M,0,20987,21062,325.3059,214.1441,309.3799,221.2534 M,0,21062,21138,309.3799,221.2534,294.8055,230.8252 M,0,21138,21214,294.8055,230.8252,281.9589,242.611 M,0,21214,21290,281.9589,242.611,271,256
Sprite,Foreground,Centre,"sb/highlight.png",176,396 S,2,21896,23296,0.6,0.12 F,2,21896,23296,1,0 P,0,21896,23296,A C,0,21896,,0,210,210
Sprite,Foreground,Centre,"sb/highlight.png",0,0 S,2,22199,24508,0.6,0.12 F,2,22199,24508,1,0 P,0,22199,24508,A C,0,22199,,255,157,157 M,0,22199,22274,108,348,106.2976,330.583 M,0,22274,22350,106.2976,330.583,104.5952,313.166 M,0,22350,22426,104.5952,313.166,102.8928,295.749 M,0,22426,22502,102.8928,295.749,101.1903,278.332 M,0,22502,22577,101.1903,278.332,99.48793,260.915 M,0,22577,22653,99.48793,260.915,97.78552,243.498 M,0,22653,22729,97.78552,243.498,99.48793,260.915 M,0,22729,22805,99.48793,260.915,101.1903,278.332 M,0,22805,22880,101.1903,278.332,102.8928,295.749 M,0,22880,22956,102.8928,295.749,104.5952,313.166 M,0,22956,23032,104.5952,313.166,106.2976,330.583 M,0,23032,23108,106.2976,330.583,108,348
Sprite,Foreground,Centre,"sb/highlight.png",0,0 S,2,23714,25417,0.6,0.12 F,2,23714,25417,1,0 P,0,23714,25417,A C,0,23714,,255,157,157 M,0,23714,23789,268,396,266.0674,378.607 M,0,23789,23865,266.0674,378.607,264.1349,361.2141 M,0,23865,23941,264.1349,361.2141,262.2023,343.8211 M,0,23941,24017,262.2023,343.8211,260.2698,326.4281
Sprite,Foreground,Centre,"sb/highlight.png",271,245 S,2,24320,25720,0.6,0.12 F,2,24320,25720,1,0 P,0,24320,25720,A C,0,24320,,255,157,157
Sprite,Foreground,Centre,"sb/highlight.png",0,0 S,2,24623,26629,0.6,0.12 F,2,24623,26629,1,0 P,0,24623,26629,A C,0,24623,,151,47,255 M,0,24623,24698,337,296,354.3737,297.0737 M,0,24698,24774,354.3737,297.0737,371.5393,294.6273 M,0,24774,24850,371.5393,294.6273,387.6767,288.2845 M,0,24850,24926,387.6767,288.2845,401.9144,278.3878 M,0,24926,25001,401.9144,278.3878,387.6767,288.2845 M,0,25001,25077,387.6767,288.2845,371.5393,294.6273 M,0,25077,25153,371.5393,294.6273,354.3737,297.0737 M,0,25153,25229,354.3737,297.0737,337,296
Sprite,Foreground,Centre,"sb/highlight.png",0,0 S,2,25532,27538,0.6,0.12 F,2,25532,27538,1,0 P,0,25532,27538,A C,0,25532,,151,47,255 M,0,25532,25607,351,213,349.4183,195.5959 M,0,25607,25683,349.4183,195.5959,350.3226,178.1529 M,0,25683,25759,350.3226,178.1529,353.6926,161.0222 M,0,25759,25835,353.6926,161.0222,359.4586,144.5484 M,0,25835,25910,359.4586,144.5484,367.5037,129.0628 M,0,25910,25986,367.5037,129.0628,377.4992,114.743 M,0,25986,26062,377.4992,114.743,389.6548,102.1946 M,0,26062,26138,389.6548,102.1946,403.3982,91.4009
Sprite,Foreground,Centre,"sb/highlight.png",508,224 S,2,26744,28144,0.6,0.12 F,2,26744,28144,1,0 P,0,26744,28144,A C,0,26744,,151,47,255
Sprite,Foreground,Centre,"sb/highlight.png",0,0 S,2,27047,29356,0.6,0.12 F,2,27047,29356,1,0 P,0,27047,29356,A C,0,27047,,192,192,192 M,0,27047,27122,562,289,563.0079,306.4709 M,0,27122,27198,563.0079,306.4709,564.0159,323.9419 M,0,27198,27274,564.0159,323.9419,565.0238,341.4128 M,0,27274,27350,565.0238,341.4128,566.0317,358.8838 M,0,27350,27425,566.0317,358.8838,567.0397,376.3547 M,0,27425,27501,567.0397,376.3547,568,393 M,0,27501,27577,568,393,567.0397,376.3547 M,0,27577,27653,567.0397,376.3547,566.0317,358.8838 M,0,27653,27728,566.0317,358.8838,565.0238,341.4128 M,0,27728,27804,565.0238,341.4128,564.0159,323.9419 M,0,27804,27880,564.0159,323.9419,563.0079,306.4709 M,0,27880,27956,563.0079,306.4709,562,289
Sprite,Foreground,Centre,"sb/highlight.png",0,0 S,2,28562,30265,0.6,0.12 F,2,28562,30265,1,0 P,0,28562,30265,A C,0,28562,,192,192,192 M,0,28562,28637,424,192,417.7306,208.3384 M,0,28637,28713,417.7306,208.3384,411.4612,224.6769 M,0,28713,28789,411.4612,224.6769,405.1918,241.0153 M,0,28789,28865,405.1918,241.0153,398.9224,257.3538
Sprite,Foreground,Centre,"sb/highlight.png",360,332 S,2,29168,30568,0.6,0.12 F,2,29168,30568,1,0 P,0,29168,30568,A C,0,29168,,192,192,192
Sprite,Foreground,Centre,"sb/highlight.png",0,0 S,2,29471,31477,0.6,0.12 F,2,29471,31477,1,0 P,0,29471,31477,A C,0,29471,,0,210,210 M,0,29471,29546,276,335,258.5605,333.5467 M,0,29546,29622,258.5605,333.5467,241.1209,332.0934 M,0,29622,29698,241.1209,332.0934,223.6814,330.6401 M,0,29698,29774,223.6814,330.6401,206.2418,329.1868 M,0,29774,29849,206.2418,329.1868,223.6814,330.6401 M,0,29849,29925,223.6814,330.6401,241.1209,332.0934 M,0,29925,30001,241.1209,332.0934,258.5605,333.5467 M,0,30001,30077,258.5605,333.5467,276,335
Sprite,Foreground,Centre,"sb/highlight.png",0,0 S,2,30380,32386,0.6,0.12 F,2,30380,32386,1,0 P,0,30380,32386,A C,0,30380,,0,210,210 M,0,30380,30455,316,260,314.6063,242.5722 M,0,30455,30531,314.6063,242.5722,311.0242,225.4651 M,0,30531,30607,311.0242,225.4651,305.3121,208.9517 M,0,30607,30683,305.3121,208.9517,297.5624,193.2955 M,0,30683,30758,297.5624,193.2955,287.8996,178.7461 M,0,30758,30834,287.8996,178.7461,276.4787,165.5356 M,0,30834,30910,276.4787,165.5356,263.4827,153.8746 M,0,30910,30986,263.4827,153.8746,249.2245,143.7704
Sprite,Foreground,Centre,"sb/highlight.png",400,72 S,2,31593,32993,0.6,0.12 F,2,31593,32993,1,0 P,0,31593,32993,A C,0,31593,,0,210,210
Sprite,Foreground,Centre,"sb/highlight.png",0,0 S,2,31896,34205,0.6,0.12 F,2,31896,34205,1,0 P,0,31896,34205,A C,0,31896,,255,157,157 M,0,31896,31971,456,136,473.2177,132.8695 M,0,31971,32047,473.2177,132.8695,490.4355,129.739 M,0,32047,32123,490.4355,129.739,507.6532,126.6085 M,0,32123,32199,507.6532,126.6085,524.8709,123.478 M,0,32199,32274,524.8709,123.478,542.0886,120.3475 M,0,32274,32350,542.0886,120.3475,559.3063,117.217 M,0,32350,32426,559.3063,117.217,542.0886,120.3475 M,0,32426,32502,542.0886,120.3475,524.8709,123.478 M,0,32502,32577,524.8709,123.478,507.6532,126.6085 M,0,32577,32653,507.6532,126.6085,490.4355,129.739 M,0,32653,32729,490.4355,129.739,473.2177,132.8695 M,0,32729,32805,473.2177,132.8695,456,136
Sprite,Foreground,Centre,"sb/highlight.png",0,0 S,2,33411,35114,0.6,0.12 F,2,33411,35114,1,0 P,0,33411,35114,A C,0,33411,,255,157,157 M,0,33411,33486,288,136,292.0082,153.0348 M,0,33486,33562,292.0082,153.0348,296.0164,170.0696 M,0,33562,33638,296.0164,170.0696,300.0246,187.1044 M,0,33638,33714,300.0246,187.1044,304,204
Sprite,Foreground,Centre,"sb/highlight.png",304,288 S,2,34018,35418,0.6,0.12 F,2,34018,35418,1,0 P,0,34018,35418,A C,0,34018,,255,157,157
Sprite,Foreground,Centre,"sb/highlight.png",0,0 S,2,34320,36023,0.6,0.12 F,2,34320,36023,1,0 P,0,34320,36023,A C,0,34320,,151,47,255 M,0,34320,34395,340,364,356.7313,359.0084 M,0,34395,34471,356.7313,359.0084,374.082,357.1999 M,0,34471,34547,374.082,357.1999,391.4556,358.632 M,0,34547,34623,391.4556,358.632,408.3416,363.0411
Sprite,Foreground,Centre,"sb/highlight.png",0,0 S,2,34926,36629,0.6,0.12 F,2,34926,36629,1,0 P,0,34926,36629,A C,0,34926,,151,47,255 M,0,34926,35001,448,288,462.6463,297.4952 M,0,35001,35077,462.6463,297.4952,475.1597,309.6389 M,0,35077,35153,475.1597,309.6389,485.0714,323.9684 M,0,35153,35229,485.0714,323.9684,492.2595,339.8656
Sprite,Foreground,Centre,"sb/highlight.png",0,0 S,2,35532,37235,0.6,0.12 F,2,35532,37235,1,0 P,0,35532,37235,A C,0,35532,,151,47,255 M,0,35532,35607,564,384,569.9498,367.5933 M,0,35607,35683,569.9498,367.5933,573.454,350.5321 M,0,35683,35759,573.454,350.5321,574.0802,333.1259 M,0,35759,35835,574.0802,333.1259,572.1419,315.7821
Sprite,Foreground,Centre,"sb/highlight.png",548,236 S,2,36138,37538,0.6,0.12 F,2,36138,37538,1,0 P,0,36138,37538,A C,0,36138,,151,47,255
Sprite,Foreground,Centre,"sb/highlight.png",476,192 S,2,36441,37841,0.6,0.12 F,2,36441,37841,1,0 P,0,36441,37841,A C,0,36441,,151,47,255
Sprite,Foreground,Centre,"sb/highlight.png",0,0 S,2,36744,38750,0.6,0.12 F,2,36744,38750,1,0 P,0,36744,38750,A C,0,36744,,192,192,192 M,0,36744,36819,472,276,455.131,280.6571 M,0,36819,36895,455.131,280.6571,438.2621,285.3141 M,0,36895,36971,438.2621,285.3141,421.3931,289.9712 M,0,36971,37047,421.3931,289.9712,404.5242,294.6283 M,0,37047,37122,404.5242,294.6283,387.6552,299.2854 M,0,37122,37198,387.6552,299.2854,370.7863,303.9424 M,0,37198,37274,370.7863,303.9424,353.9173,308.5995 M,0,37274,37350,353.9173,308.5995,337.0483,313.2566
Sprite,Foreground,Centre,"sb/highlight.png",0,0 S,2,37956,39962,0.6,0.12 F,2,37956,39962,1,0 P,0,37956,39962,A C,0,37956,,192,192,192 M,0,37956,38031,176,364,171.2256,380.8361 M,0,38031,38107,171.2256,380.8361,166.4512,397.6722 M,0,38107,38183,166.4512,397.6722,161.6767,414.5084 M,0,38183,38259,161.6767,414.5084,157,431 M,0,38259,38334,157,431,161.6767,414.5084 M,0,38334,38410,161.6767,414.5084,166.4512,397.6722 M,0,38410,38486,166.4512,397.6722,171.2256,380.8361 M,0,38486,38562,171.2256,380.8361,176,364
Sprite,Foreground,Centre,"sb/highlight.png",164,280 S,2,38865,40265,0.6,0.12 F,2,38865,40265,1,0 P,0,38865,40265,A C,0,38865,,192,192,192
Sprite,Foreground,Centre,"sb/highlight.png",0,0 S,2,39168,41174,0.6,0.12 F,2,39168,41174,1,0 P,0,39168,41174,A C,0,39168,,0,210,210 M,0,39168,39243,192,200,208.7208,194.8362 M,0,39243,39319,208.7208,194.8362,225.4416,189.6724 M,0,39319,39395,225.4416,189.6724,242.1624,184.5087 M,0,39395,39471,242.1624,184.5087,258.8832,179.3449 M,0,39471,39546,258.8832,179.3449,275.604,174.1811 M,0,39546,39622,275.604,174.1811,292.3248,169.0173 M,0,39622,39698,292.3248,169.0173,309.0457,163.8535 M,0,39698,39774,309.0457,163.8535,325.7664,158.6898
Sprite,Foreground,Centre,"sb/highlight.png",0,0 S,2,40077,42083,0.6,0.12 F,2,40077,42083,1,0 P,0,40077,42083,A C,0,40077,,0,210,210 M,0,40077,40152,390,103,399.3241,117.7826 M,0,40152,40228,399.3241,117.7826,405.8488,133.9944 M,0,40228,40304,405.8488,133.9944,409.3828,151.1113 M,0,40304,40380,409.3828,151.1113,410.1003,168.5798 M,0,40380,40455,410.1003,168.5798,409.5007,186.0576 M,0,40455,40531,409.5007,186.0576,411.7434,203.3873 M,0,40531,40607,411.7434,203.3873,417.3347,219.9378 M,0,40607,40683,417.3347,219.9378,426.1469,235.0241
Sprite,Foreground,Centre,"sb/highlight.png",500,276 S,2,40987,42387,0.6,0.12 F,2,40987,42387,1,0 P,0,40987,42387,A C,0,40987,,0,210,210
Sprite,Foreground,Centre,"sb/highlight.png",428,320 S,2,41290,42690,0.6,0.12 F,2,41290,42690,1,0 P,0,41290,42690,A C,0,41290,,0,210,210
Sprite,Foreground,Centre,"sb/highlight.png",0,0 S,2,41593,43599,0.6,0.12 F,2,41593,43599,1,0 P,0,41593,43599,A C,0,41593,,255,157,157 M,0,41593,41668,492,376,478.8432,387.4786 M,0,41668,41744,478.8432,387.4786,463.6964,396.139 M,0,41744,41820,463.6964,396.139,447.1524,401.6471 M,0,41820,41896,447.1524,401.6471,429.8578,403.7917 M,0,41896,41971,429.8578,403.7917,412.4876,402.4928 M,0,41971,42047,412.4876,402.4928,395.7194,397.8038 M,0,42047,42123,395.7194,397.8038,380.2065,389.9101 M,0,42123,42199,380.2065,389.9101,366.5535,379.1213
Sprite,Foreground,Centre,"sb/highlight.png",0,0 S,2,42502,44508,0.6,0.12 F,2,42502,44508,1,0 P,0,42502,44508,A C,0,42502,,255,157,157 M,0,42502,42577,299,328,285.2197,317.2852 M,0,42577,42653,285.2197,317.2852,269.5762,309.5751 M,0,42653,42729,269.5762,309.5751,252.7121,305.1804 M,0,42729,42805,252.7121,305.1804,235.3194,304.2767 M,0,42805,42880,235.3194,304.2767,218.1106,306.8972 M,0,42880,42956,218.1106,306.8972,201.79,312.9315 M,0,42956,43032,201.79,312.9315,187.0255,322.1304 M,0,43032,43108,187.0255,322.1304,174.1272,333.8649
Sprite,Foreground,Centre,"sb/highlight.png",121,399 S,2,43411,44811,0.6,0.12 F,2,43411,44811,1,0 P,0,43411,44811,A C,0,43411,,255,157,157
Sprite,Foreground,Centre,"sb/highlight.png",90,322 S,2,43714,45114,0.6,0.12 F,2,43714,45114,1,0 P,0,43714,45114,A C,0,43714,,255,157,157
Sprite,Foreground,Centre,"sb/highlight.png",0,0 S,2,44017,46023,0.6,0.12 F,2,44017,46023,1,0 P,0,44017,46023,A C,0,44017,,151,47,255 M,0,44017,44092,141,255,151.6881,241.1871 M,0,44092,44168,151.6881,241.1871,159.6274,225.6426 M,0,44168,44244,159.6274,225.6426,164.5467,208.9055 M,0,44244,44320,164.5467,208.9055,166.2791,191.5551 M,0,44320,44395,166.2791,191.5551,164.7674,174.1915 M,0,44395,44471,164.7674,174.1915,160.0664,157.4147 M,0,44471,44547,160.0664,157.4147,152.3405,141.8043 M,0,44547,44623,152.3405,141.8043,141.8584,127.8991
Sprite,Foreground,Centre,"sb/highlight.png",0,0 S,2,44926,46932,0.6,0.12 F,2,44926,46932,1,0 P,0,44926,46932,A C,0,44926,,151,47,255 M,0,44926,45001,211,80,219.6567,95.16669 M,0,45001,45077,219.6567,95.16669,230.975,108.4496 M,0,45077,45153,230.975,108.4496,244.558,119.3891 M,0,45153,45229,244.558,119.3891,259.9305,127.6071 M,0,45229,45304,259.9305,127.6071,276.556,132.82 M,0,45304,45380,276.556,132.82,293.8549,134.8488 M,0,45380,45456,293.8549,134.8488,311.2247,133.6246 M,0,45456,45532,311.2247,133.6246,328.0607,129.1914
Sprite,Foreground,Centre,"sb/highlight.png",403,93 S,2,45835,47235,0.6,0.12 F,2,45835,47235,1,0 P,0,45835,47235,A C,0,45835,,151,47,255
Sprite,Foreground,Centre,"sb/highlight.png",446,164 S,2,46138,47538,0.6,0.12 F,2,46138,47538,1,0 P,0,46138,47538,A C,0,46138,,151,47,255
Sprite,Foreground,Centre,"sb/highlight.png",0,0 S,2,46441,48447,0.6,0.12 F,2,46441,48447,1,0 P,0,46441,48447,A C,0,46441,,192,192,192 M,0,46441,46516,403,236,418.9984,242.9853 M,0,46516,46592,418.9984,242.9853,436.0573,246.6225 M,0,46592,46668,436.0573,246.6225,453.4863,246.7695 M,0,46668,46744,453.4863,246.7695,470.5811,243.4249 M,0,46744,46819,470.5811,243.4249,486.6514,236.7275 M,0,46819,46895,486.6514,236.7275,501.0488,226.9509 M,0,46895,46971,501.0488,226.9509,513.1925,214.4922 M,0,46971,47047,513.1925,214.4922,522.5928,199.8561
Sprite,Foreground,Centre,"sb/highlight.png",0,0 S,2,47350,49356,0.6,0.12 F,2,47350,49356,1,0 P,0,47350,49356,A C,0,47350,,192,192,192 M,0,47350,47425,566,127,550.0016,120.0147 M,0,47425,47501,550.0016,120.0147,532.9427,116.3776 M,0,47501,47577,532.9427,116.3776,515.5137,116.2305 M,0,47577,47653,515.5137,116.2305,498.4189,119.5751 M,0,47653,47728,498.4189,119.5751,482.3486,126.2725 M,0,47728,47804,482.3486,126.2725,467.9512,136.0491 M,0,47804,47880,467.9512,136.0491,455.8075,148.5078 M,0,47880,47956,455.8075,148.5078,446.4073,163.1439
Sprite,Foreground,Centre,"sb/highlight.png",403,236 S,2,48259,49659,0.6,0.12 F,2,48259,49659,1,0 P,0,48259,49659,A C,0,48259,,192,192,192
Sprite,Foreground,Centre,"sb/highlight.png",447,308 S,2,48562,49962,0.6,0.12 F,2,48562,49962,1,0 P,0,48562,49962,A C,0,48562,,192,192,192
Sprite,Foreground,Centre,"sb/highlight.png",0,0 S,2,48865,50871,0.6,0.12 F,2,48865,50871,1,0 P,0,48865,50871,A C,0,48865,,0,210,210 M,0,48865,48940,391,372,373.6287,369.8816 M,0,48940,49016,373.6287,369.8816,356.2574,367.7631 M,0,49016,49092,356.2574,367.7631,338.8861,365.6447 M,0,49092,49168,338.8861,365.6447,321.5148,363.5262 M,0,49168,49243,321.5148,363.5262,304.1435,361.4077 M,0,49243,49319,304.1435,361.4077,286.7722,359.2893 M,0,49319,49395,286.7722,359.2893,269.4009,357.1708 M,0,49395,49471,269.4009,357.1708,252.0296,355.0524
Sprite,Foreground,Centre,"sb/highlight.png",0,0 S,2,49774,51780,0.6,0.12 F,2,49774,51780,1,0 P,0,49774,51780,A C,0,49774,,0,210,210 M,0,49774,49849,172,383,168.1913,365.9418 M,0,49849,49925,168.1913,365.9418,167.4617,348.481 M,0,49925,50001,167.4617,348.481,169.8413,331.1656 M,0,50001,50077,169.8413,331.1656,175.0044,314.4624 M,0,50077,50152,175.0044,314.4624,181.4498,298.2045 M,0,50152,50228,181.4498,298.2045,185.2436,281.1454 M,0,50228,50304,185.2436,281.1454,185.7553,263.6808 M,0,50304,50380,185.7553,263.6808,182.9135,246.4393
Sprite,Foreground,Centre,"sb/highlight.png",151,168 S,2,50684,52084,0.6,0.12 F,2,50684,52084,1,0 P,0,50684,52084,A C,0,50684,,0,210,210
Sprite,Foreground,Centre,"sb/highlight.png",234,178 S,2,50987,52387,0.6,0.12 F,2,50987,52387,1,0 P,0,50987,52387,A C,0,50987,,0,210,210
Sprite,Foreground,Centre,"sb/highlight.png",0,0 S,2,51290,53296,0.6,0.12 F,2,51290,53296,1,0 P,0,51290,53296,A C,0,51290,,255,157,157 M,0,51290,51365,224,94,241.4541,94.03065 M,0,51365,51441,241.4541,94.03065,258.5255,97.58574 M,0,51441,51517,258.5255,97.58574,274.5128,104.5133 M,0,51517,51593,274.5128,104.5133,288.7599,114.5238 M,0,51593,51668,288.7599,114.5238,300.6825,127.202 M,0,51668,51744,300.6825,127.202,309.7919,142.0242 M,0,51744,51820,309.7919,142.0242,315.7146,158.3791 M,0,51820,51896,315.7146,158.3791,318.5212,175.5734
Sprite,Foreground,Centre,"sb/highlight.png",0,0 S,2,52199,54205,0.6,0.12 F,2,52199,54205,1,0 P,0,52199,54205,A C,0,52199,,255,157,157 M,0,52199,52274,335,258,337.4451,275.2809 M,0,52274,52350,337.4451,275.2809,343.3842,291.6744 M,0,52350,52426,343.3842,291.6744,352.5591,306.4849 M,0,52426,52502,352.5591,306.4849,364.5746,319.0844 M,0,52502,52577,364.5746,319.0844,378.9164,328.9392 M,0,52577,52653,378.9164,328.9392,394.972,335.632 M,0,52653,52729,394.972,335.632,412.0569,338.8799 M,0,52729,52805,412.0569,338.8799,429,339
Sprite,Foreground,Centre,"sb/highlight.png",512,324 S,2,53108,54508,0.6,0.12 F,2,53108,54508,1,0 P,0,53108,54508,A C,0,53108,,255,157,157
Sprite,Foreground,Centre,"sb/highlight.png",456,262 S,2,53411,54811,0.6,0.12 F,2,53411,54811,1,0 P,0,53411,54811,A C,0,53411,,255,157,157
Sprite,Foreground,Centre,"sb/highlight.png",0,0 S,2,53714,55720,0.6,0.12 F,2,53714,55720,1,0 P,0,53714,55720,A C,0,53714,,151,47,255 M,0,53714,53789,538,243,549.4149,229.7933 M,0,53789,53865,549.4149,229.7933,558.0403,214.6363 M,0,53865,53941,558.0403,214.6363,563.5544,198.1058 M,0,53941,54017,563.5544,198.1058,565.7524,180.8294 M,0,54017,54092,565.7524,180.8294,564.5541,163.4622 M,0,54092,54168,564.5541,163.4622,560.0068,146.6622 M,0,54168,54244,560.0068,146.6622,552.5255,130.9232 M,0,54244,54320,552.5255,130.9232,541.8054,117.1627
Sprite,Foreground,Centre,"sb/highlight.png",0,0 S,2,54623,56629,0.6,0.12 F,2,54623,56629,1,0 P,0,54623,56629,A C,0,54623,,151,47,255 M,0,54623,54698,483,178,465.5,178 M,0,54698,54774,465.5,178,448,178 M,0,54774,54850,448,178,430.5,178 M,0,54850,54926,430.5,178,413,178 M,0,54926,55001,413,178,430.5,178 M,0,55001,55077,430.5,178,448,178 M,0,55077,55153,448,178,465.5,178 M,0,55153,55229,465.5,178,483,178
Sprite,Foreground,Centre,"sb/highlight.png",456,258 S,2,55532,56932,0.6,0.12 F,2,55532,56932,1,0 P,0,55532,56932,A C,0,55532,,151,47,255
Sprite,Foreground,Centre,"sb/highlight.png",429,339 S,2,55846,57246,0.6,0.12 F,2,55846,57246,1,0 P,0,55846,57246,A C,0,55846,,151,47,255
Sprite,Foreground,Centre,"sb/highlight.png",0,0 S,2,56152,58204,0.6,0.12 F,2,56152,58204,1,0 P,0,56152,58204,A C,0,56152,,192,192,192 M,0,56152,56233,373,275,361.2811,262.0583 M,0,56233,56315,361.2811,262.0583,347.2124,251.7402 M,0,56315,56396,347.2124,251.7402,331.3687,244.4614 M,0,56396,56478,331.3687,244.4614,314.3958,240.5143 M,0,56478,56559,314.3958,240.5143,296.9847,240.0559 M,0,56559,56641,296.9847,240.0559,279.8435,243.1016 M,0,56641,56722,279.8435,243.1016,263.6689,249.5251 M,0,56722,56804,263.6689,249.5251,249.1178,259.0632
Sprite,Foreground,Centre,"sb/highlight.png",0,0 S,2,57130,59227,0.6,0.12 F,2,57130,59227,1,0 P,0,57130,59227,A C,0,57130,,192,192,192 M,0,57130,57217,304,327,302.0674,344.393 M,0,57217,57304,302.0674,344.393,300.1349,361.7859 M,0,57304,57391,300.1349,361.7859,298.2023,379.1789 M,0,57391,57478,298.2023,379.1789,296.2698,396.5719 M,0,57478,57566,296.2698,396.5719,298.2023,379.1789 M,0,57566,57653,298.2023,379.1789,300.1349,361.7859 M,0,57653,57740,300.1349,361.7859,302.0674,344.393 M,0,57740,57827,302.0674,344.393,304,327
Sprite,Foreground,Centre,"sb/highlight.png",373,275 S,2,58184,59584,0.6,0.12 F,2,58184,59584,1,0 P,0,58184,59584,A C,0,58184,,192,192,192
Sprite,Foreground,Centre,"sb/highlight.png",0,0 S,2,58584,60192,0.6,0.12 F,2,58584,60192,1,0 P,0,58584,60192,A C,0,58584,,0,210,210 M,0,58584,58688,429,339,427.6912,356.451 M,0,58688,58792,427.6912,356.451,426.3824,373.902
//Storyboard Sound Samples

[TimingPoints]
78,606.060606060606,4,2,1,25,1,0
381,606.060606060606,4,2,1,25,1,0
55540,612.244897959184,4,2,1,25,1,0
56152,652.173913043478,4,2,1,25,1,0
57130,697.674418604651,4,2,1,25,1,0
57827,714.285714285714,4,2,1,25,1,0
58184,800,4,2,1,25,1,0
58584,833.333333333333,4,2,1,25,1,0

[Colours]
Combo1 : 151,47,255
Combo2 : 192,192,192
Combo3 : 0,210,210
Combo4 : 255,157,157

[HitObjects]
52,184,78,5,0,0:0:0:0:
56,100,381,6,0,L|17:5,2,70,2|0|0,0:0|0:0|0:0,0:0:0:0:
128,144,1290,2,0,P|202:129|266:165,1,140,2|2,0:0|0:0,0:0:0:0:
376,276,2502,1,0,0:0:0:0:
444,228,2805,6,0,L|424:96,2,105,2|0|2,0:0|0:0|0:0,0:0:0:0:
288,288,4320,2,0,L|276:208,1,70
284,136,4926,1,0,0:0:0:0:
332,68,5229,6,0,P|360:40|400:28,2,70,2|0|0,0:0|0:0|0:0,0:0:0:0:
248,60,6138,2,0,P|158:46|96:74,1,140,2|2,0:0|0:0,0:0:0:0:
0,184,7350,1,0,0:0:0:0:
48,252,7653,6,0,L|32:355,2,105,2|0|2,0:0|0:0|0:0,0:0:0:0:
188,160,9168,2,0,L|209:253,1,70
265,286,9774,1,0,0:0:0:0:
348,288,10077,6,0,L|440:278,2,70,2|0|0,0:0|0:0|0:0,0:0:0:0:
304,216,10987,2,0,P|293:147|317:82,1,140,2|2,0:0|0:0,0:0:0:0:
160,24,12199,1,0,0:0:0:0:
104,88,12502,6,0,L|-28:64,2,105,2|0|2,0:0|0:0|0:0,0:0:0:0:
272,84,14016,2,0,L|259:152,1,70
283,233,14623,1,0,0:0:0:0:
252,312,14926,6,0,P|192:308|180:312,1,70,2|0,0:0|0:0,0:0:0:0:
144,236,15532,2,0,P|112:264|100:292,1,70
28,332,16138,2,0,P|18:298|20:264,1,70,2|0,0:0|0:0,0:0:0:0:
44,184,16744,1,0,0:0:0:0:
100,120,17047,1,0,0:0:0:0:
128,200,17350,6,0,L|287:257,1,140,2|2,0:0|0:0,0:0:0:0:
420,304,18562,2,0,L|434:373,2,70
392,224,19471,1,0,0:0:0:0:
414,143,19774,6,0,L|398:71,2,70,2|0|0,0:0|0:0|0:0,0:0:0:0:
330,157,20684,2,0,P|261:158|207:200,1,140,2|2,0:0|0:0,0:0:0:0:
112,340,21896,1,0,0:0:0:0:
44,292,22199,6,0,L|31:159,2,105,2|0|2,0:0|0:0|0:0,0:0:0:0:
204,340,23714,2,0,L|195:259,1,70
207,189,24320,1,0,0:0:0:0:
273,240,24623,6,0,P|317:236|345:216,2,70,2|0|0,0:0|0:0|0:0,0:0:0:0:
287,157,25532,2,0,P|295:89|343:33,1,140,2|2,0:0|0:0,0:0:0:0:
444,168,26744,1,0,0:0:0:0:
498,233,27047,6,0,L|504:337,2,105,2|0|2,0:0|0:0|0:0,0:0:0:0:
360,136,28562,2,0,L|327:222,1,70
296,276,29168,1,0,0:0:0:0:
212,279,29471,6,0,L|128:272,2,70,2|0|0,0:0|0:0|0:0,0:0:0:0:
252,204,30380,2,0,P|233:136|184:87,1,140,2|2,0:0|0:0,0:0:0:0:
336,16,31593,1,0,0:0:0:0:
392,80,31896,6,0,L|524:56,2,105,2|0|2,0:0|0:0|0:0,0:0:0:0:
224,80,33411,2,0,L|240:148,1,70
240,232,34018,1,0,0:0:0:0:
276,308,34320,6,0,P|335:304|347:308,1,70,2|0,0:0|0:0,0:0:0:0:
384,232,34926,2,0,P|424:273|429:286,1,70
500,328,35532,2,0,P|510:293|508:259,1,70,2|0,0:0|0:0,0:0:0:0:
484,180,36138,1,0,0:0:0:0:
412,136,36441,1,0,0:0:0:0:
408,220,36744,6,0,L|245:265,1,140,2|2,0:0|0:0,0:0:0:0:
112,308,37956,2,0,L|93:375,2,70
100,224,38865,1,0,0:0:0:0:
128,144,39168,6,0,L|264:102,1,140,2|0,0:0|0:0,0:0:0:0:
326,47,40077,2,0,B|348:76|346:115|346:115|342:155|366:184,1,140,2|0,0:0|0:0,0:0:0:0:
436,220,40987,1,0,0:0:0:0:
364,264,41290,1,0,0:0:0:0:
428,320,41593,6,0,P|360:348|286:302,1,140,2|0,0:0|0:0,0:0:0:0:
235,272,42502,2,0,P|171:248|110:278,1,140,2|0,0:0|0:0,0:0:0:0:
57,343,43411,1,0,0:0:0:0:
26,266,43714,1,0,0:0:0:0:
77,199,44017,6,0,P|101:118|64:59,1,140,2|0,0:0|0:0,0:0:0:0:
147,24,44926,2,0,P|212:77|280:66,1,140,2|0,0:0|0:0,0:0:0:0:
339,37,45835,1,0,0:0:0:0:
382,108,46138,1,0,0:0:0:0:
339,180,46441,6,0,P|431:176|467:120,1,140,2|0,0:0|0:0,0:0:0:0:
502,71,47350,2,0,P|410:75|374:131,1,140,2|0,0:0|0:0,0:0:0:0:
339,180,48259,1,0,0:0:0:0:
383,252,48562,1,0,0:0:0:0:
327,316,48865,6,0,L|163:296,1,140,2|0,0:0|0:0,0:0:0:0:
108,327,49774,2,0,B|97:292|112:256|112:256|129:220|117:184,1,140,2|0,0:0|0:0,0:0:0:0:
87,112,50684,1,0,0:0:0:0:
170,122,50987,1,0,0:0:0:0:
160,38,51290,6,0,P|229:62|250:151,1,140,2|0,0:0|0:0,0:0:0:0:
271,202,52199,2,0,P|300:263|365:283,1,140,2|0,0:0|0:0,0:0:0:0:
448,268,53108,1,0,0:0:0:0:
392,206,53411,1,0,0:0:0:0:
474,187,53714,6,0,P|501:108|461:47,1,140,2|0,0:0|0:0,0:0:0:0:
419,122,54623,2,0,L|331:122,2,70,2|0|0,0:0|0:0|0:0,0:0:0:0:
392,202,55532,1,0,0:0:0:0:
365,283,55846,1,0,0:0:0:0:
309,219,56152,6,0,P|255:185|177:210,1,140,2|0,0:0|0:0,0:0:0:0:
240,271,57130,2,0,L|232:343,2,70,2|0|0,0:0|0:0|0:0,0:0:0:0:
309,219,58184,1,0,0:0:0:0:
365,283,58584,6,0,L|362:323,1,35,0|2,0:0|0:0,0:0:0:0:
