osu file format v14

[General]
AudioFilename: audio.mp3
AudioLeadIn: 0
PreviewTime: 32526
Countdown: 0
SampleSet: Normal
StackLeniency: 0.7
Mode: 1
LetterboxInBreaks: 0
WidescreenStoryboard: 0

[Editor]
DistanceSpacing: 1.1
BeatDivisor: 4
GridSize: 4
TimelineZoom: 1

[Metadata]
Title:Deep in Abyss
TitleUnicode:Deep in Abyss
Artist:R3 Music Box
ArtistUnicode:R3 Music Box
Creator:Faputa
Version:Naraku no Soko de Matsu
Source:メイドインアビス
Tags:Anime Made in Abyss Riko Reg Regu Miyu Tomita Mariya Ise OP opening
BeatmapID:1396432
BeatmapSetID:659371

[Difficulty]
HPDrainRate:7
CircleSize:2
OverallDifficulty:4
ApproachRate:5
SliderMultiplier:1.4
SliderTickRate:1

[Events]
//Background and Video events
0,0,"BG.jpg",0,0
//Break Periods
//Storyboard Layer 0 (Background)
//Storyboard Layer 1 (Fail)
//Storyboard Layer 2 (Pass)
//Storyboard Layer 3 (Foreground)
//Storyboard Sound Samples

[TimingPoints]
26,625,4,1,0,50,1,0
26,-100,4,1,0,50,0,0
48778,652.173913043478,4,1,0,50,1,8
48778,-95.2380952380952,4,1,0,50,0,0
50084,722.89156626506,4,1,0,50,1,0
50084,-86.2068965517241,4,1,0,50,0,0
51586,810.810810810811,4,1,0,30,1,8
51586,-76.9230769230769,4,1,0,30,0,0
52396,810.810810810811,4,1,0,30,1,8
52470,1016.94915254237,4,1,0,30,1,0
52470,-61.3496932515337,4,1,0,30,0,0
52978,800,4,1,0,40,1,8
52978,-81.3008130081301,4,1,0,40,0,0

[HitObjects]
252,192,1588,5,0,0:0:0:0:
252,192,1901,1,0,0:0:0:0:
252,192,2213,1,2,0:0:0:0:
252,192,2526,1,0,0:0:0:0:
252,192,2838,1,0,0:0:0:0:
164,132,2994,1,2,0:0:0:0:
252,192,3463,1,0,0:0:0:0:
252,192,4088,1,2,0:0:0:0:
252,192,4401,1,2,0:0:0:0:
252,192,4713,1,0,0:0:0:0:
252,192,5026,1,2,0:0:0:0:
252,192,5338,1,0,0:0:0:0:
252,192,5494,1,2,0:0:0:0:
140,168,5963,1,2,0:0:0:0:
140,168,6276,1,2,0:0:0:0:
368,212,6901,1,0,0:0:0:0:
300,200,7213,1,0,0:0:0:0:
300,200,7526,1,2,0:0:0:0:
300,200,7838,1,0,0:0:0:0:
432,124,8463,1,2,0:0:0:0:
364,164,8776,1,0,0:0:0:0:
224,236,9401,1,0,0:0:0:0:
288,200,9713,1,0,0:0:0:0:
220,240,10026,1,2,0:0:0:0:
440,220,10963,1,2,0:0:0:0:
208,184,11901,1,0,0:0:0:0:
276,196,12213,1,2,0:0:0:0:
276,196,12526,1,0,0:0:0:0:
276,196,12838,1,0,0:0:0:0:
276,196,12994,1,2,0:0:0:0:
276,196,13463,1,0,0:0:0:0:
136,200,14088,1,2,0:0:0:0:
212,196,14401,1,2,0:0:0:0:
280,200,14713,1,0,0:0:0:0:
220,224,15026,1,2,0:0:0:0:
280,200,15338,1,0,0:0:0:0:
324,176,15494,1,2,0:0:0:0:
220,224,15963,1,2,0:0:0:0:
168,168,16276,1,2,0:0:0:0:
216,200,16901,1,2,0:0:0:0:
216,200,17213,1,0,0:0:0:0:
292,188,17526,1,2,0:0:0:0:
204,204,17838,1,0,0:0:0:0:
348,256,18463,1,2,0:0:0:0:
276,228,18776,1,0,0:0:0:0:
120,196,19401,1,0,0:0:0:0:
196,216,19713,1,0,0:0:0:0:
264,252,20026,1,2,0:0:0:0:
112,276,20651,1,2,0:0:0:0:
264,252,21276,1,0,0:0:0:0:
228,240,22838,5,2,0:0:0:0:
164,256,23151,1,2,0:0:0:0:
164,256,23463,1,0,0:0:0:0:
216,192,23619,1,2,0:0:0:0:
216,192,23776,1,0,0:0:0:0:
176,140,23932,1,2,0:0:0:0:
252,144,24244,1,0,0:0:0:0:
152,260,24401,1,2,0:0:0:0:
168,192,24713,1,2,0:0:0:0:
228,240,25338,5,2,0:0:0:0:
164,256,25651,1,2,0:0:0:0:
164,256,25963,1,0,0:0:0:0:
232,196,26119,1,2,0:0:0:0:
232,196,26276,1,0,0:0:0:0:
176,140,26432,1,2,0:0:0:0:
248,160,26744,1,0,0:0:0:0:
152,260,26901,1,2,0:0:0:0:
168,192,27213,1,2,0:0:0:0:
156,268,27526,1,0,0:0:0:0:
172,196,27838,1,2,0:0:0:0:
96,312,28463,1,0,0:0:0:0:
176,192,29088,1,0,0:0:0:0:
136,248,29401,1,2,0:0:0:0:
276,228,30026,1,2,0:0:0:0:
188,256,31276,1,2,0:0:0:0:
188,256,31901,1,0,0:0:0:0:
236,140,32526,1,2,0:0:0:0:
304,156,32838,1,0,0:0:0:0:
160,124,33151,1,0,0:0:0:0:
232,140,33463,1,2,0:0:0:0:
240,180,34088,1,0,0:0:0:0:
240,180,34401,1,2,0:0:0:0:
240,180,34713,1,2,0:0:0:0:
112,236,35338,1,2,0:0:0:0:
172,208,35651,1,0,0:0:0:0:
232,184,35963,1,2,0:0:0:0:
316,308,36588,1,2,0:0:0:0:
280,256,36901,1,0,0:0:0:0:
244,112,37526,5,0,0:0:0:0:
284,168,37838,1,0,0:0:0:0:
324,220,38151,1,0,0:0:0:0:
324,220,38463,1,2,0:0:0:0:
244,176,39088,1,0,0:0:0:0:
244,176,39401,1,0,0:0:0:0:
244,176,39713,1,2,0:0:0:0:
112,292,40338,1,0,0:0:0:0:
156,240,40651,1,2,0:0:0:0:
208,188,40963,1,2,0:0:0:0:
300,68,41588,1,0,0:0:0:0:
260,120,41901,1,2,0:0:0:0:
124,160,42526,1,0,0:0:0:0:
180,120,42838,1,0,0:0:0:0:
128,156,43151,1,0,0:0:0:0:
188,116,43463,1,2,0:0:0:0:
256,180,44088,1,0,0:0:0:0:
256,180,44401,1,2,0:0:0:0:
256,180,44713,1,2,0:0:0:0:
124,124,45338,1,2,0:0:0:0:
188,152,45651,1,0,0:0:0:0:
248,176,45963,1,2,0:0:0:0:
248,176,46588,1,2,0:0:0:0:
248,176,46901,1,0,0:0:0:0:
100,160,47526,1,0,0:0:0:0:
176,176,47838,1,0,0:0:0:0:
232,116,48151,1,2,0:0:0:0:
216,192,48463,1,2,0:0:0:0:
196,160,48619,1,2,0:0:0:0:
152,236,48778,1,0,0:0:0:0:
212,192,49104,1,0,0:0:0:0:
240,104,49430,1,2,0:0:0:0:
256,184,49756,1,2,0:0:0:0:
256,184,49919,1,2,0:0:0:0:
188,260,50082,1,0,0:0:0:0:
212,192,50807,1,2,0:0:0:0:
212,192,51168,1,0,0:0:0:0:
228,168,51586,1,2,0:0:0:0:
212,192,51991,1,0,0:0:0:0:
212,192,52470,1,2,0:0:0:0:
228,168,52978,1,0,0:0:0:0:
228,168,53178,1,0,0:0:0:0:
228,168,53378,1,2,0:0:0:0:
